<?xml version="1.0" standalone="no"?>
<!DOCTYPE svg PUBLIC "-//W3C//DTD SVG 1.1//EN" "http://www.w3.org/Graphics/SVG/1.1/DTD/svg11.dtd" >
<svg xmlns="http://www.w3.org/2000/svg">
<metadata>
Created by FontPrep 20130207 at Sun Jul  6 13:39:54 2014
 By Michael Ball
(c) 1989, 1995, 2001 Adobe Systems Incorporated. All rights reserved.
</metadata>
<defs>
<font id="3eaba91beb7b625b23e94e8dc7177288" horiz-adv-x='1024' >
  <font-face 
    font-family="VAGRoundedStd-Black"
    font-weight="900"
    font-stretch="normal"
    units-per-em="2048"
    panose-1="2 15 9 2 2 2 4 2 2 4"
    ascent="1577"
    descent="-471"
    x-height="1090"
    cap-height="1470"
    bbox="-354 -645 2183 1960"
    underline-thickness="102"
    underline-position="-102"
    unicode-range="U+0020-FB02"
  />
<missing-glyph horiz-adv-x="1024" 
d="M102 1239v-1044l349 522zM164 102h696l-348 523zM573 717l349 -522v1044zM512 809l348 522h-696zM0 0v1434h1024v-1434h-1024z" />
    <glyph glyph-name="f_i" unicode="fi" 
d="M156 154v641h-37q-168 0 -168 147t168 148h37v143q0 147 93 245t238 99q213 0 213 -147t-151 -148q-39 0 -56 -22t-18 -82v-88h88q168 0 168 -148t-168 -147h-88v-641q0 -70 -45 -118t-115 -48q-71 0 -115 48t-44 118zM721 1386q0 80 56 136t134 55q79 0 135 -55
q56 -56 56 -136t-56 -135t-134 -55t-135 55q-56 55 -56 135zM752 154v782q0 70 45 118t115 48t114 -48q45 -48 45 -118v-782q0 -70 -45 -118t-115 -48q-71 0 -115 48t-44 118z" />
    <glyph glyph-name="f_l" unicode="fl" 
d="M156 154v641h-37q-168 0 -168 147t168 148h37v143q0 147 93 245t238 99q213 0 213 -147t-151 -148q-39 0 -56 -22t-18 -82v-88h88q168 0 168 -148t-168 -147h-88v-641q0 -70 -45 -118t-115 -48q-71 0 -115 48t-44 118zM752 154v1257q0 70 45 118t115 48t114 -48
q45 -48 45 -118v-1257q0 -70 -45 -118t-115 -48q-71 0 -115 48t-44 118z" />
    <glyph glyph-name=".notdef" horiz-adv-x="1024" 
d="M102 1239v-1044l349 522zM164 102h696l-348 523zM573 717l349 -522v1044zM512 809l348 522h-696zM0 0v1434h1024v-1434h-1024z" />
    <glyph glyph-name=".null" horiz-adv-x="0" 
 />
    <glyph glyph-name="nonmarkingreturn" horiz-adv-x="681" 
 />
    <glyph glyph-name="space" unicode=" " horiz-adv-x="569" 
 />
    <glyph glyph-name="exclam" unicode="!" horiz-adv-x="532" 
d="M88 144q0 73 53 126q53 54 125 54t125 -54t53 -126q0 -73 -53 -125t-125 -52t-125 52t-53 125zM426 1311v-719q0 -76 -43 -128t-117 -52t-116 52t-44 128v719q0 76 44 128t116 52q74 0 117 -52t43 -128z" />
    <glyph glyph-name="quotedbl" unicode="&#x22;" horiz-adv-x="985" 
d="M160 981v346q0 63 37 103t98 40t98 -40t37 -103v-346q0 -63 -37 -103t-98 -40t-98 40t-37 103zM555 981v346q0 63 37 103t98 40t98 -40t37 -103v-346q0 -63 -37 -103t-98 -40t-98 40t-37 103z" />
    <glyph glyph-name="numbersign" unicode="#" horiz-adv-x="1228" 
d="M692 606l33 244h-186l-33 -244h186zM195 410q-49 0 -74 28t-25 70q0 41 25 70t74 28h104l33 244h-78q-49 0 -74 29q-24 29 -24 69t24 70q25 29 74 29h108l44 317q14 106 114 106q39 0 66 -24q26 -24 26 -50t-8 -81l-37 -268h185l43 317q14 106 114 106q39 0 66 -24
t27 -50t-9 -81l-37 -268h78q49 0 74 -29t25 -70q0 -42 -25 -70t-74 -28h-104l-33 -244h78q49 0 74 -28t25 -69q0 -40 -26 -70q-24 -30 -73 -29h-109l-43 -316q-14 -106 -114 -106q-39 0 -66 24t-27 50t9 81l37 267h-185l-43 -316q-14 -106 -115 -106q-39 0 -65 24t-26 50
t8 81l36 267h-77z" />
    <glyph glyph-name="dollar" unicode="$" horiz-adv-x="1290" 
d="M707 287q51 0 85 42t34 100t-30 91t-89 51v-284zM471 1064q0 -50 32 -80t81 -42v254q-49 -12 -81 -47t-32 -85zM121 205q0 66 43 118t104 52q27 0 131 -44t185 -44v317q-250 74 -354 172q-103 98 -103 244q0 199 131 326t326 145v94q0 61 61 62q61 0 62 -62v-94
q120 -4 204 -36t121 -76t37 -105q0 -62 -38 -108t-87 -46t-121 38t-116 38v-289q199 -59 316 -146q148 -108 146 -310q0 -115 -44 -208q-76 -161 -262 -239q-79 -33 -156 -37v-90q1 -61 -61 -61t-62 61v90q-463 36 -463 238z" />
    <glyph glyph-name="percent" unicode="%" horiz-adv-x="1402" 
d="M729 297q0 135 93 232q92 97 226 97t227 -98t93 -231t-93 -231t-228 -98t-227 96q-92 98 -91 233zM35 1161q0 135 93 233t226 97q132 0 226 -98q94 -97 94 -231t-93 -232t-229 -98t-226 96q-91 98 -91 233zM963 297q-1 -39 23 -68t63 -29t63 30q24 28 23 67q0 39 -24 68
q-25 29 -63 29t-62 -29q-23 -29 -23 -68zM268 1161q0 -39 24 -67t62 -29q38 0 63 29q23 30 23 68t-23 67q-24 29 -63 29q-38 0 -62 -30q-24 -28 -24 -67zM1072 1491q46 0 81 -34t35 -80t-64 -152l-661 -1149q-31 -55 -59 -82t-74 -27t-80 34t-34 80t63 152l661 1149
q31 55 58 82q28 27 74 27z" />
    <glyph glyph-name="ampersand" unicode="&#x26;" horiz-adv-x="1441" 
d="M809 1116q-1 63 -41 100t-100 37t-100 -34q-40 -35 -40 -87t26 -91q26 -40 95 -97q160 74 160 172zM819 332l-274 305q-94 -57 -139 -109q-46 -52 -46 -124t56 -125t141 -54q137 1 262 107zM1401 577q0 -58 -113 -176l-74 -75l62 -70q72 -80 72 -133t-48 -94t-102 -42
q-53 -1 -78 16t-63 63l-60 67q-199 -166 -481 -166q-199 0 -337 120t-138 314q0 156 86 257t244 182q-47 53 -72 87q-64 87 -66 195q0 160 119 256t299 96t304 -85q124 -86 124 -265q-1 -115 -69 -207t-181 -153l207 -240l80 99q29 35 43 51t41 32t55 15q53 0 99 -43
t47 -101z" />
    <glyph glyph-name="quotesingle" unicode="'" horiz-adv-x="530" 
d="M131 981v346q0 63 37 103t98 40t99 -39q37 -40 36 -104v-346q-1 -63 -37 -103t-98 -40t-98 40q-37 40 -37 103z" />
    <glyph glyph-name="parenleft" unicode="(" horiz-adv-x="530" 
d="M80 573q0 426 129 746q39 90 72 131t93 41t100 -35t40 -94q0 -12 -38 -125t-76 -296t-38 -367t38 -368q38 -183 76 -296t38 -125q0 -59 -40 -94t-100 -35t-93 41t-72 131q-129 319 -129 745z" />
    <glyph glyph-name="parenright" unicode=")" horiz-adv-x="530" 
d="M451 573q0 -426 -129 -745q-39 -90 -72 -131t-93 -41t-101 35q-40 35 -40 94q0 12 38 125t76 296t38 367q0 183 -38 367t-76 297t-38 125q0 59 40 94t100 35t94 -41q33 -41 72 -131q129 -320 129 -746z" />
    <glyph glyph-name="asterisk" unicode="*" horiz-adv-x="796" 
d="M397 1470q47 0 79 -24t32 -72q0 -18 -8 -64t-11 -65q32 22 74 53q41 31 84 31t75 -37t32 -74q0 -61 -60 -90q-20 -10 -58 -24t-54 -23q16 -8 54 -22q116 -43 118 -105q0 -47 -32 -84q-32 -36 -73 -36t-71 20q-31 20 -89 64l19 -130q0 -48 -32 -72t-79 -24t-79 24t-31 72
q0 18 8 64t10 66q-62 -42 -91 -63t-70 -21t-71 36t-30 77q0 42 23 64q24 23 82 45t65 25q-5 4 -65 27q-60 22 -82 44t-23 64q0 42 30 77q30 36 69 36t65 -17q68 -45 98 -67l-18 129q0 96 110 96z" />
    <glyph glyph-name="plus" unicode="+" horiz-adv-x="1228" 
d="M479 715v301q0 66 36 104t99 39q64 0 100 -39t36 -104v-301h301q67 0 105 -36t38 -99q0 -64 -39 -100t-104 -36h-301v-301q0 -67 -36 -105t-100 -38t-99 39q-36 39 -36 104v301h-301q-63 0 -103 39t-40 99t39 97q39 36 104 36h301z" />
    <glyph glyph-name="comma" unicode="," horiz-adv-x="569" 
d="M463 194q0 -52 -31 -108l-168 -301q-53 -94 -145 -94q-68 0 -112 39t-44 90t31 108l168 301q53 94 145 95q68 0 112 -39t44 -91z" />
    <glyph glyph-name="hyphen" unicode="-" horiz-adv-x="872" 
d="M195 707h483q63 0 99 -37q36 -36 36 -98t-36 -99t-99 -37h-483q-63 0 -100 37q-36 37 -36 98t36 99q37 37 100 37z" />
    <glyph glyph-name="period" unicode="." horiz-adv-x="569" 
d="M285 -33q-71 0 -125 52t-54 125t54 126q54 54 125 54q72 0 125 -54t53 -126q0 -73 -53 -125t-125 -52z" />
    <glyph glyph-name="slash" unicode="/" horiz-adv-x="948" 
d="M826 1491q38 0 69 -30t31 -79t-78 -196l-551 -1051q-23 -41 -48 -86t-56 -63q-33 -18 -71 -18t-69 29q-31 30 -31 79t78 196l551 1051q23 41 48 86t56 64q33 18 71 18z" />
    <glyph glyph-name="zero" unicode="0" horiz-adv-x="1290" 
d="M379 729q0 -239 106 -367q63 -76 159 -76t161 76q108 131 107 368q-1 238 -107 366q-63 76 -159 76t-161 -76q-106 -128 -106 -367zM35 729q0 305 146 524q73 109 193 173t272 65q152 0 270 -65q220 -120 300 -406q79 -286 0 -578t-300 -410q-120 -65 -272 -65t-270 65
q-222 121 -302 415q-37 135 -37 282z" />
    <glyph glyph-name="one" unicode="1" horiz-adv-x="681" 
d="M250 164v987h-105q-73 0 -113 46q-40 45 -40 107t41 108t112 46h271q166 0 166 -166v-1128q0 -86 -45 -131t-121 -45t-121 45t-45 131z" />
    <glyph glyph-name="two" unicode="2" horiz-adv-x="1024" 
d="M858 307q72 0 113 -46t41 -107q0 -62 -41 -108t-113 -46h-670q-84 0 -136 41t-52 94q0 91 99 201q36 39 87 90l66 66q83 83 174 198q90 114 120 160q77 119 77 184q0 137 -127 137q-74 0 -113 -48t-50 -106q-11 -59 -48 -107t-109 -48t-114 48t-42 112q0 193 142 331
t345 138q204 0 338 -123t134 -319q0 -102 -53 -213q-54 -111 -112 -183q-58 -73 -162 -185t-142 -161h348z" />
    <glyph glyph-name="three" unicode="3" horiz-adv-x="1062" 
d="M0 365q0 59 49 105t101 46q93 0 144 -81q22 -33 48 -67q63 -82 176 -81q72 0 119 51t47 123q0 156 -207 160q-57 2 -99 41q-42 40 -42 110t37 100t137 56q125 27 125 135q0 53 -36 81t-90 28t-99 -28t-70 -60q-68 -87 -158 -87q-59 0 -97 47t-38 105q1 145 149 243
t324 99q176 0 305 -109q129 -108 129 -286t-163 -301q115 -45 176 -143t61 -228q0 -197 -147 -327t-365 -130t-366 122q-150 122 -150 276z" />
    <glyph glyph-name="four" unicode="4" horiz-adv-x="1251" 
d="M694 602v522h-4l-303 -522h307zM694 168v139h-547q-85 0 -125 41q-40 40 -40 98t63 154l487 754q42 66 98 92t154 24q98 0 164 -68t66 -181v-619h69q168 0 168 -147t-168 -148h-69v-135q0 -90 -42 -137t-117 -47t-118 47t-43 133z" />
    <glyph glyph-name="five" unicode="5" horiz-adv-x="1024" 
d="M590 991q202 0 316 -139t114 -356t-155 -373t-386 -156q-171 0 -323 80t-152 193q0 72 41 118t97 48q56 0 152 -60t180 -59q85 0 137 62q53 61 53 159t-44 156t-117 57q-73 0 -137 -37t-121 -37q-56 0 -92 33t-36 92t10 150l51 399q10 86 54 112t122 25h500q72 0 113 -46
t41 -107t-41 -107t-113 -47h-395l-23 -180q76 20 154 20z" />
    <glyph glyph-name="six" unicode="6" horiz-adv-x="1101" 
d="M365 473q0 -76 55 -131t131 -55t131 55t55 131t-55 131t-131 55t-131 -55t-55 -131zM20 465q0 322 289 680q180 223 249 285q68 62 136 61q68 0 111 -54q43 -53 43 -103t-42 -102t-125 -140t-142 -174l4 -5q49 16 129 17q176 0 293 -139t116 -318q1 -215 -149 -360
t-386 -145t-382 136q-144 138 -144 361z" />
    <glyph glyph-name="seven" unicode="7" horiz-adv-x="985" 
d="M147 1151q-73 0 -113 46q-40 45 -40 107t41 108t112 46h672q78 0 125 -49t47 -103t-47 -157l-465 -1004q-55 -124 -114 -146q-31 -11 -89 -11t-102 47q-45 47 -45 98t53 162l408 856h-443z" />
    <glyph glyph-name="eight" unicode="8" 
d="M428 1055q0 -57 42 -99t99 -43q57 0 100 42q42 41 42 99t-42 100q-41 42 -99 42t-100 -42t-42 -99zM379 477q0 -80 55 -135t135 -55t136 55q55 55 55 135t-55 135q-55 56 -135 56t-136 -56q-55 -56 -55 -135zM569 1491q201 0 337 -108t136 -302q0 -96 -43 -173t-92 -115
q97 -59 147 -153t50 -198q0 -203 -148 -339t-387 -136q-238 0 -386 136t-148 339q0 104 49 198t147 153q-49 39 -92 115t-43 173q0 195 136 303t337 107z" />
    <glyph glyph-name="nine" unicode="9" horiz-adv-x="1101" 
d="M737 985q0 76 -55 131t-131 55t-131 -55t-55 -131t55 -131t131 -55t131 55t55 131zM1081 993q0 -322 -288 -680q-180 -223 -249 -284q-68 -61 -136 -61t-111 54t-43 103t42 101t125 140t142 175l-4 4q-49 -16 -129 -17q-176 0 -293 140t-117 317q0 215 150 361t386 145
q236 1 381 -137q144 -138 144 -361z" />
    <glyph glyph-name="colon" unicode=":" horiz-adv-x="569" 
d="M285 606q-71 0 -125 52t-54 125t54 126t125 53q72 0 125 -52q53 -54 53 -127t-53 -125t-125 -52zM285 -33q-71 0 -125 52t-54 125t54 126q54 54 125 54q72 0 125 -54t53 -126q0 -73 -53 -125t-125 -52z" />
    <glyph glyph-name="semicolon" unicode=";" horiz-adv-x="569" 
d="M285 606q-71 0 -125 52t-54 125t54 126t125 53q72 0 125 -52q53 -54 53 -127t-53 -125t-125 -52zM463 194q0 -52 -31 -108l-168 -301q-53 -94 -145 -94q-68 0 -112 39t-44 90t31 108l168 301q53 94 145 95q68 0 112 -39t44 -91z" />
    <glyph glyph-name="less" unicode="&#x3c;" horiz-adv-x="1228" 
d="M47 580q0 80 76 116l833 383q60 29 112 29t83 -33t31 -90q0 -88 -97 -129l-659 -276l659 -277q96 -41 97 -129q0 -57 -31 -90t-83 -33t-112 29l-833 383q-76 37 -76 117z" />
    <glyph glyph-name="equal" unicode="=" horiz-adv-x="1228" 
d="M178 473h873q67 0 105 -36t38 -99t-39 -99t-104 -36h-873q-66 0 -104 36t-39 99q1 63 39 99t104 36zM178 956h873q67 0 105 -36t38 -98q0 -64 -39 -100t-104 -36h-873q-66 0 -104 36t-39 99q1 63 39 99t104 36z" />
    <glyph glyph-name="greater" unicode="&#x3e;" horiz-adv-x="1228" 
d="M47 985q0 57 31 90t83 33t111 -29l834 -383q76 -36 76 -116t-76 -117l-834 -383q-59 -29 -111 -29t-83 33t-31 90q0 88 96 129l660 277l-660 276q-96 41 -96 129z" />
    <glyph glyph-name="question" unicode="?" horiz-adv-x="1024" 
d="M299 144q0 73 53 126q53 54 125 54t125 -54t53 -126q0 -73 -53 -125t-125 -52t-125 52t-53 125zM317 571v164q0 80 52 105q34 17 110 30q156 31 156 156q0 51 -41 92q-40 41 -100 41q-102 0 -153 -65q-21 -27 -43 -54q-52 -65 -123 -65q-70 0 -114 46q-43 46 -43 107
q0 162 148 262t319 101q211 0 359 -124t147 -331q0 -352 -354 -424v-41q0 -71 -44 -115t-116 -44t-116 44t-44 115z" />
    <glyph glyph-name="at" unicode="@" horiz-adv-x="1638" 
d="M1206 496q66 0 121 81t55 230q0 240 -146 370t-384 130t-398 -169q-161 -169 -161 -422t161 -409q162 -155 410 -155t377 106q29 23 59 23t55 -23q23 -22 23 -54t-22 -52q-66 -66 -195 -125t-295 -60q-332 0 -563 216t-231 543t228 546t540 219t520 -172
q207 -172 207 -455q0 -129 -42 -235q-41 -105 -103 -167t-136 -106q-125 -74 -237 -73q-111 0 -115 102h-4q-90 -102 -254 -102q-102 0 -186 98q-83 98 -82 250q0 211 117 351q118 140 282 140q90 0 147 -30t103 -97l8 37q16 74 96 74q39 0 65 -24t26 -53t-9 -68l-63 -353
q-12 -55 -13 -73q0 -39 39 -39zM641 682q0 -166 137 -166q100 0 160 62t59 142q0 81 -41 125q-40 44 -120 44q-80 -1 -138 -63t-57 -144z" />
    <glyph glyph-name="A" unicode="A" horiz-adv-x="1290" 
d="M819 588l-166 534h-4l-178 -534h348zM826 1398q34 -50 52 -89t46 -119l319 -862q49 -134 49 -200t-44 -103t-116 -37t-110 40q-37 40 -64 122l-40 131h-545l-41 -131q-27 -82 -64 -122q-38 -40 -110 -40t-116 37t-44 103t49 200l320 862q29 80 46 119t50 89q61 93 181 93
q119 0 182 -93z" />
    <glyph glyph-name="B" unicode="B" horiz-adv-x="1214" 
d="M412 594v-299h209q201 0 200 149q0 76 -58 113t-142 37h-209zM80 166v1126q0 76 49 121t117 45h391q186 0 298 -105t112 -279t-175 -275q133 -27 213 -124t80 -235q0 -188 -127 -314t-381 -126h-411q-68 0 -117 45t-49 121zM412 1163v-274h151q72 0 112 35t40 102
q0 137 -152 137h-151z" />
    <glyph glyph-name="C" unicode="C" horiz-adv-x="1214" 
d="M43 734q0 331 199 544t524 213q176 0 308 -56t132 -175q0 -62 -41 -110t-88 -48t-139 35t-164 34q-188 0 -281 -128t-93 -312t90 -308q91 -124 255 -124q119 0 208 34t133 34t80 -32t44 -62t8 -78t-44 -97q-45 -48 -117 -76q-137 -52 -297 -55q-332 0 -524 218t-193 549z
" />
    <glyph glyph-name="D" unicode="D" horiz-adv-x="1366" 
d="M80 166v1126q0 76 49 121t117 45h397q311 0 495 -211t185 -508q0 -343 -198 -541t-482 -198h-397q-68 0 -117 45t-49 121zM412 1151v-844h176q186 0 282 117t96 310t-94 305t-270 112h-190z" />
    <glyph glyph-name="E" unicode="E" horiz-adv-x="948" 
d="M80 166v1126q0 76 49 121t117 45h508q78 0 122 -42t44 -112t-44 -112q-44 -41 -122 -41h-342v-264h313q78 0 122 -41t44 -113q0 -73 -44 -113t-122 -40h-313v-273h354q78 0 122 -41q44 -42 44 -112t-44 -112t-122 -42h-520q-68 0 -117 45t-49 121z" />
    <glyph glyph-name="F" unicode="F" horiz-adv-x="909" 
d="M80 164v1128q0 76 49 121t117 45h508q78 0 122 -42t44 -112t-44 -112q-44 -41 -122 -41h-342v-260h299q78 0 122 -41t44 -113q0 -73 -44 -113t-122 -40h-299v-420q0 -86 -46 -131t-120 -45t-120 45t-46 131z" />
    <glyph glyph-name="G" unicode="G" horiz-adv-x="1478" 
d="M889 864h358q176 0 176 -202q0 -299 -182 -497q-181 -198 -497 -198t-508 218t-193 547q0 329 204 544t513 215q221 0 393 -87t172 -233q0 -61 -41 -100t-107 -39t-164 76q-35 28 -99 52t-140 24q-170 0 -272 -130t-102 -320t94 -325q94 -134 274 -135q129 0 214 77
t97 206h-190q-78 0 -122 42t-44 113q0 72 44 112t122 40z" />
    <glyph glyph-name="H" unicode="H" horiz-adv-x="1441" 
d="M412 594v-430q0 -86 -46 -131t-120 -45t-120 45t-46 131v1130q0 86 46 131t120 45t120 -45t46 -131v-393h618v393q0 86 46 131t120 45t120 -45t46 -131v-1130q0 -86 -46 -131t-120 -45t-120 45t-46 131v430h-618z" />
    <glyph glyph-name="I" unicode="I" horiz-adv-x="491" 
d="M412 1294v-1130q0 -86 -46 -131t-120 -45t-120 45t-46 131v1130q0 86 46 131t120 45t120 -45t46 -131z" />
    <glyph glyph-name="J" unicode="J" horiz-adv-x="872" 
d="M461 508v786q0 86 46 131t120 45q73 0 119 -45t47 -131v-843q1 -153 -37 -244t-84 -135t-127 -75q-81 -30 -217 -30t-242 70q-57 39 -80 74q-22 35 -22 99t39 108q39 46 96 46t119 -38q62 -39 116 -39t80 49t27 172z" />
    <glyph glyph-name="K" unicode="K" horiz-adv-x="1214" 
d="M80 164v1130q0 86 46 131t120 45t120 -45t46 -131v-405l456 497q74 84 156 84q58 0 112 -48t54 -111t-66 -133l-395 -398l432 -469q92 -97 92 -166t-50 -113q-49 -44 -107 -44t-102 28t-59 43q-15 16 -61 68l-462 520v-483q0 -86 -46 -131t-120 -45t-120 45t-46 131z" />
    <glyph glyph-name="L" unicode="L" horiz-adv-x="909" 
d="M80 166v1128q0 86 46 131t120 45t120 -45t46 -131v-987h356q78 0 122 -41q44 -42 44 -112t-44 -112t-122 -42h-522q-68 0 -117 45t-49 121z" />
    <glyph glyph-name="M" unicode="M" horiz-adv-x="1781" 
d="M1747 142q0 -56 -43 -105q-42 -49 -104 -49t-99 17q-76 35 -102 202l-99 647h-4l-223 -717q-25 -81 -67 -115t-115 -34q-74 0 -116 35t-66 114l-224 717h-4l-98 -647q-26 -167 -102 -202q-37 -17 -99 -17t-104 49t-43 105q0 56 55 370l131 750q37 209 219 208
q117 0 167 -70t120 -288l162 -502h4l162 502q70 217 120 288t166 70q182 0 220 -208l131 -750q55 -314 55 -370z" />
    <glyph glyph-name="N" unicode="N" horiz-adv-x="1441" 
d="M80 164v1130q0 86 46 131t114 45t106 -32q39 -32 129 -146l551 -690h4v692q0 86 46 131t120 45t120 -45t46 -131v-1130q0 -86 -46 -131t-114 -45t-108 32q-39 32 -127 146l-551 690h-4v-692q0 -86 -46 -131t-120 -45t-120 45t-46 131z" />
    <glyph glyph-name="O" unicode="O" horiz-adv-x="1519" 
d="M760 1184q-180 0 -270 -132t-91 -322q0 -190 90 -323q91 -133 271 -133t270 132t90 323t-90 323t-270 132zM760 1491q326 0 522 -208t195 -554q0 -346 -196 -554q-195 -208 -521 -208t-522 208t-195 554q-1 346 195 554t522 208z" />
    <glyph glyph-name="P" unicode="P" horiz-adv-x="1175" 
d="M80 164v1128q0 76 49 121t117 45h407q207 0 353 -130t147 -357q0 -227 -129 -365t-360 -137h-252v-305q0 -86 -46 -131t-120 -45t-120 45t-46 131zM412 1163v-399h178q100 0 160 58q59 58 59 148t-59 141q-59 52 -160 52h-178z" />
    <glyph glyph-name="Q" unicode="Q" horiz-adv-x="1519" 
d="M760 1184q-180 0 -270 -132t-91 -322q0 -190 90 -323q90 -132 271 -133q59 0 100 15l-4 2q-66 57 -86 89t-20 83t38 91t90 40t89 -18t100 -76l10 -8q43 106 43 237q0 191 -90 323t-270 132zM760 -33q-326 0 -522 208t-195 554q0 346 196 554q195 208 521 208t522 -208
t195 -554q0 -281 -131 -471l79 -70q66 -57 86 -89q21 -33 21 -83t-39 -90t-90 -41q-51 0 -89 19t-100 76l-88 77q-156 -90 -366 -90z" />
    <glyph glyph-name="R" unicode="R" horiz-adv-x="1175" 
d="M412 1151v-322h219q80 1 125 47t45 118t-48 114q-48 43 -122 43h-219zM80 164v1128q0 76 49 121t117 45h399q221 0 354 -124t134 -328q1 -162 -91 -272t-249 -138l288 -311q70 -77 70 -135t-43 -110q-42 -52 -114 -52t-104 18t-67 64l-407 514h-4v-420q0 -86 -46 -131
t-120 -45t-120 45t-46 131z" />
    <glyph glyph-name="S" unicode="S" horiz-adv-x="1099" 
d="M10 205q0 74 42 126t114 52q30 0 146 -42t209 -42t136 39t43 94t-24 75q-24 21 -38 33t-51 24q-35 12 -55 20t-138 43q-208 61 -285 158q-76 97 -74 239q0 225 150 346q151 121 360 121t319 -60t109 -159q0 -68 -41 -112q-40 -44 -98 -44t-137 28t-151 28t-113 -34
q-42 -32 -42 -85t54 -81q35 -19 70 -29q33 -11 55 -18t108 -34q166 -52 273 -145q106 -94 106 -291q0 -240 -156 -364t-403 -124t-404 107q-84 57 -84 131z" />
    <glyph glyph-name="T" unicode="T" horiz-adv-x="950" 
d="M309 164v987h-186q-82 0 -127 42t-45 113q0 72 45 112t127 40h704q82 0 127 -41t45 -111t-45 -113q-45 -42 -127 -42h-186v-987q0 -86 -46 -131t-120 -45t-120 45t-46 131z" />
    <glyph glyph-name="U" unicode="U" horiz-adv-x="1402" 
d="M401 1294v-708q0 -141 85 -220t214 -79t215 79t86 220v708q1 86 47 131t120 45t119 -45q46 -45 46 -131v-708q0 -285 -176 -452t-457 -167q-282 0 -456 167t-174 452v708q0 86 45 131t121 45t120 -45t45 -131z" />
    <glyph glyph-name="V" unicode="V" horiz-adv-x="1175" 
d="M1068 1470q58 0 102 -48q46 -48 46 -99t-34 -135l-414 -1024q-43 -106 -80 -141t-97 -35t-98 26q-39 26 -53 56q-14 29 -26 58t-15 36l-405 1024q-35 84 -35 136t46 98q45 48 103 48t97 -13q52 -18 100 -136l283 -746l282 746q26 64 60 107q33 42 138 42z" />
    <glyph glyph-name="W" unicode="W" horiz-adv-x="1859" 
d="M-8 1309q0 69 46 115t120 46q139 0 172 -147l170 -786h4l239 763q31 92 75 132t112 38q68 0 112 -38t74 -132l240 -763h4l170 786q33 147 172 147q74 0 120 -47t46 -114q0 -33 -33 -170l-221 -903q-33 -136 -78 -192t-156 -56q-176 0 -235 182l-213 668h-4l-213 -668
q-59 -182 -236 -182q-111 0 -155 56t-78 192l-221 903q-33 137 -33 170z" />
    <glyph glyph-name="X" unicode="X" horiz-adv-x="1253" 
d="M1180 1314q0 -64 -62 -145l-291 -385l355 -475q45 -59 58 -87t13 -85t-46 -103q-45 -46 -125 -46t-152 98l-303 414l-303 -414q-72 -98 -152 -98t-126 46t-46 104t13 84q13 28 59 87l354 475l-291 385q-61 81 -61 145t46 110t128 46q43 0 80 -24t55 -48q18 -22 57 -79
l187 -258l186 258q39 57 57 80t56 47t80 24q82 0 128 -46t46 -110z" />
    <glyph glyph-name="Y" unicode="Y" horiz-adv-x="1101" 
d="M385 164v520l-287 385q-113 158 -125 191t-12 63q0 66 50 107q51 40 109 40t94 -20t51 -38t40 -54l246 -350l246 350q25 35 40 53q15 19 51 39t94 20t109 -40q50 -40 50 -98q0 -56 -24 -97t-113 -166l-287 -385v-520q0 -86 -45 -131t-121 -45t-121 45t-45 131z" />
    <glyph glyph-name="Z" unicode="Z" horiz-adv-x="1099" 
d="M946 307q84 0 130 -42q46 -41 46 -111t-46 -112t-130 -42h-735q-233 0 -234 182q0 61 62 146l627 835h-490q-84 0 -130 41t-46 107q0 67 46 107t130 40h713q117 0 160 -52t43 -106t-36 -114q-36 -59 -120 -172l-530 -707h540z" />
    <glyph glyph-name="bracketleft" unicode="[" horiz-adv-x="720" 
d="M446 1257v-1368h140q51 -1 84 -33q32 -32 32 -83t-32 -84t-84 -33h-281q-141 0 -141 141v1553q0 141 141 141h281q51 0 84 -33q32 -33 32 -84t-32 -84t-84 -33h-140z" />
    <glyph glyph-name="backslash" unicode="\" horiz-adv-x="948" 
d="M127 1491q70 0 124 -85q17 -28 46 -83l551 -1051q78 -147 78 -196t-31 -79t-74 -30q-70 0 -124 85q-17 28 -46 83l-551 1051q-78 147 -78 196t31 79t74 30z" />
    <glyph glyph-name="bracketright" unicode="]" horiz-adv-x="720" 
d="M274 -111v1368h-139q-51 0 -84 33t-33 84t33 84t84 33h281q141 0 141 -141v-1553q0 -141 -141 -141h-281q-51 0 -84 33t-33 84t33 84t84 32h139z" />
    <glyph glyph-name="asciicircum" unicode="^" horiz-adv-x="1228" 
d="M614 1470q88 0 136 -88l315 -573q27 -51 27 -90q0 -74 -105 -74q-51 -1 -83 17t-58 65l-232 424l-231 -424q-27 -47 -59 -64t-82 -18q-104 0 -105 74q0 39 27 90l315 573q47 88 135 88z" />
    <glyph glyph-name="underscore" unicode="_" horiz-adv-x="1024" 
d="M1024 -256h-1024q-59 0 -59 51t59 51h1024q59 0 59 -51t-59 -51z" />
    <glyph glyph-name="grave" unicode="`" horiz-adv-x="454" 
d="M461 1356q0 -58 -37 -100t-88 -42t-92 19l-307 133q-76 29 -76 113q0 59 37 100t88 41t92 -18l307 -134q76 -29 76 -112z" />
    <glyph glyph-name="a" unicode="a" horiz-adv-x="1175" 
d="M569 815q-102 0 -160 -78q-59 -79 -59 -193t58 -192t161 -78q102 0 161 78q58 78 58 193t-58 193t-161 77zM1108 936v-782q0 -70 -45 -118t-115 -48q-102 0 -149 102q-100 -123 -275 -123q-209 0 -351 168t-142 410q0 241 142 409t351 168q174 0 275 -123q47 102 149 103
q70 0 115 -48t45 -118z" />
    <glyph glyph-name="b" unicode="b" horiz-adv-x="1175" 
d="M606 815q-102 0 -160 -78q-58 -79 -59 -193q0 -114 58 -192q59 -78 161 -78t161 78q58 78 58 193q-1 115 -59 193t-160 77zM68 154v1257q0 70 45 118t115 48t114 -48q45 -48 45 -118v-379q111 90 264 90q209 0 351 -168t142 -410t-142 -409q-142 -168 -351 -168
q-174 0 -274 123q-47 -102 -150 -102q-71 0 -115 48t-44 118z" />
    <glyph glyph-name="c" unicode="c" horiz-adv-x="948" 
d="M31 545q1 245 151 411t387 166q131 0 217 -32t124 -76t38 -104q0 -62 -38 -105t-83 -43t-108 26t-131 27q-117 0 -177 -77q-61 -76 -61 -192t58 -194t150 -78q91 0 169 28t90 28q53 0 92 -44t39 -108t-70 -117q-122 -91 -309 -94q-238 0 -388 166t-150 412z" />
    <glyph glyph-name="d" unicode="d" horiz-adv-x="1175" 
d="M569 815q-102 0 -160 -78q-59 -79 -59 -193t58 -192t161 -78q102 0 161 78q58 78 58 193t-58 193t-161 77zM1108 1411v-1257q0 -70 -45 -118t-115 -48q-102 0 -149 102q-100 -123 -275 -123q-209 0 -351 168t-142 410q0 241 142 409t351 168q154 0 264 -90v379
q0 70 46 118t114 48q70 0 115 -48t45 -118z" />
    <glyph glyph-name="e" unicode="e" 
d="M375 659h413q0 61 -60 127t-146 66t-146 -66t-61 -127zM952 440h-577q0 -66 59 -122t173 -56t219 50t146 50t81 -38q39 -39 39 -99q0 -111 -155 -185t-347 -73q-252 0 -406 165t-154 407q0 243 160 413t394 170t379 -161q145 -162 145 -381q0 -80 -37 -110t-119 -30z" />
    <glyph glyph-name="f" unicode="f" horiz-adv-x="681" 
d="M156 154v641h-37q-168 0 -168 147t168 148h37v143q0 147 93 245t238 99q213 0 213 -147t-151 -148q-39 0 -56 -22t-18 -82v-88h88q168 0 168 -148t-168 -147h-88v-641q0 -70 -45 -118t-115 -48q-71 0 -115 48t-44 118z" />
    <glyph glyph-name="g" unicode="g" horiz-adv-x="1175" 
d="M788 542q0 118 -58 196t-160 77q-102 0 -161 -78q-59 -77 -59 -195t58 -195t161 -77q102 0 161 77q58 77 58 195zM1108 936v-830q0 -147 -46 -259q-84 -205 -310 -271q-102 -31 -197 -31q-95 -1 -173 13q-196 34 -281 115q-50 47 -50 105t42 101t84 43t141 -47t223 -47
q247 0 247 283h-4q-88 -123 -300 -123t-332 163q-121 163 -121 399t142 404t351 168q174 0 275 -123q47 102 149 103q70 0 115 -48t45 -118z" />
    <glyph glyph-name="h" unicode="h" 
d="M74 154v1257q0 70 45 118t115 48t114 -48q45 -48 45 -118v-369h4q127 80 287 80t270 -94t111 -283v-591q0 -70 -45 -118t-115 -48q-71 0 -115 48t-45 118v505q0 85 -47 139t-129 54t-129 -54t-47 -139v-505q0 -70 -45 -118t-115 -48q-71 0 -115 48t-44 118z" />
    <glyph glyph-name="i" unicode="i" horiz-adv-x="454" 
d="M37 1386q0 80 56 136t134 55q78 0 134 -55q57 -56 57 -136t-56 -135t-135 -55q-78 0 -134 55t-56 135zM68 154v782q0 70 45 118t115 48t114 -48q45 -48 45 -118v-782q0 -70 -45 -118t-115 -48q-71 0 -115 48t-44 118z" />
    <glyph glyph-name="j" unicode="j" horiz-adv-x="454" 
d="M37 1386q0 80 56 136t134 55q78 0 134 -55q57 -56 57 -136t-56 -135t-135 -55q-78 0 -134 55t-56 135zM68 -289v1225q0 70 45 118t115 48t114 -48q45 -48 45 -118v-1225q0 -70 -45 -118t-115 -48q-71 0 -115 48t-44 118z" />
    <glyph glyph-name="k" unicode="k" horiz-adv-x="1024" 
d="M74 154v1257q0 70 45 118t115 48t114 -48q45 -48 45 -118v-680l222 222q114 114 130 122q15 7 25 13q25 14 78 14q54 0 98 -43t43 -93q1 -50 -23 -84q-24 -32 -89 -96l-172 -170l268 -340q76 -94 76 -144t-41 -97q-40 -47 -106 -47t-100 22t-85 86l-320 418h-4v-360
q0 -70 -45 -118t-115 -48q-71 0 -115 48t-44 118z" />
    <glyph glyph-name="l" unicode="l" horiz-adv-x="454" 
d="M68 154v1257q0 70 45 118t115 48t114 -48q45 -48 45 -118v-1257q0 -70 -45 -118t-115 -48q-71 0 -115 48t-44 118z" />
    <glyph glyph-name="m" unicode="m" horiz-adv-x="1744" 
d="M74 154v782q0 70 45 118t114 48q115 0 160 -103q37 59 112 91t163 32q193 0 297 -131q53 41 86 63t96 46t127 22q176 0 287 -94t110 -283v-591q0 -70 -45 -118t-115 -48q-71 0 -115 48t-44 118v505q0 81 -42 137t-118 56t-118 -56t-42 -137v-505q0 -70 -45 -118t-115 -48
t-114 48t-45 118v505q0 81 -42 137t-118 56t-118 -56t-42 -137v-505q0 -70 -45 -118t-115 -48q-71 0 -115 48t-44 118z" />
    <glyph glyph-name="n" unicode="n" 
d="M74 154v782q0 70 45 118t114 48q115 0 160 -103q79 123 265 123t296 -94t111 -283v-591q0 -70 -45 -118t-115 -48q-71 0 -115 48t-45 118v505q0 85 -47 139t-129 54t-129 -54t-47 -139v-505q0 -70 -45 -118t-115 -48q-71 0 -115 48t-44 118z" />
    <glyph glyph-name="o" unicode="o" 
d="M569 815q-102 0 -160 -78q-59 -79 -59 -193t58 -192t161 -78q102 0 161 78q58 78 58 193t-58 193t-161 77zM569 1122q239 0 389 -166t150 -412t-151 -411q-151 -166 -389 -166t-388 166t-149 412q0 245 150 411t388 166z" />
    <glyph glyph-name="p" unicode="p" horiz-adv-x="1175" 
d="M606 274q102 0 161 78q58 78 58 193t-58 193q-59 78 -161 77q-102 0 -160 -78q-58 -79 -59 -193q1 -114 59 -192t160 -78zM68 -289v1225q0 70 45 118t114 48q102 0 150 -103q100 123 274 123q209 0 351 -168t142 -410t-142 -409q-142 -168 -351 -168q-154 0 -264 90v-346
q0 -70 -45 -118t-115 -48q-71 0 -115 48t-44 118z" />
    <glyph glyph-name="q" unicode="q" horiz-adv-x="1175" 
d="M1108 936v-1225q0 -70 -45 -118t-115 -48t-114 48t-46 118v346q-111 -90 -264 -90q-209 0 -351 168t-142 410q0 241 142 409t351 168q174 0 275 -123q51 102 149 103q70 0 115 -48t45 -118zM350 545q0 -115 58 -193t161 -78q102 0 161 78q58 78 58 193t-58 193t-160 77
q-102 1 -162 -77q-58 -78 -58 -193z" />
    <glyph glyph-name="r" unicode="r" horiz-adv-x="720" 
d="M74 154v782q0 70 45 118t114 48q115 0 160 -103q102 123 221 123q66 0 115 -47t49 -121t-46 -106t-154 -64q-108 -34 -147 -78q-38 -44 -38 -163v-389q0 -70 -45 -118t-115 -48q-71 0 -115 48t-44 118z" />
    <glyph glyph-name="s" unicode="s" horiz-adv-x="872" 
d="M448 840q-94 0 -94 -68q0 -34 52 -60t124 -52q74 -26 148 -62t125 -104q51 -70 51 -168q0 -164 -119 -261t-287 -97t-299 60t-131 160q0 66 38 110t88 44t145 -46q94 -46 176 -46t82 63q0 37 -31 55t-104 46q-72 28 -113 45q-135 55 -193 117t-59 196q0 133 114 242
q114 108 298 108t301 -96q68 -54 68 -122t-38 -106t-80 -38t-130 40t-132 40z" />
    <glyph glyph-name="t" unicode="t" horiz-adv-x="681" 
d="M156 154v641h-37q-168 0 -168 147t168 148h37v208q0 70 45 118t115 48t114 -48q45 -48 45 -118v-208h88q168 0 168 -148t-168 -147h-88v-641q0 -70 -45 -118t-115 -48q-71 0 -115 48t-44 118z" />
    <glyph glyph-name="u" unicode="u" 
d="M1065 936v-543q0 -209 -140 -317q-139 -108 -355 -109q-216 0 -356 109t-140 317v543q0 70 45 118t115 48t114 -48q45 -48 45 -118v-498q0 -84 53 -130t123 -46t123 46t53 130v498q-1 70 45 118t116 48t114 -48q45 -48 45 -118z" />
    <glyph glyph-name="v" unicode="v" horiz-adv-x="950" 
d="M-10 948q0 60 47 107t113 47q113 0 153 -121l170 -483h4l170 483q41 121 154 121q67 0 113 -47t46 -107t-49 -184l-260 -647q-53 -129 -176 -129t-176 129l-260 647q-49 124 -49 184z" />
    <glyph glyph-name="w" unicode="w" horiz-adv-x="1556" 
d="M152 1102q119 0 151 -113l156 -518h4l143 449q46 142 102 167q30 15 70 15t76 -17q35 -17 73 -100q9 -23 23 -65l144 -449h4l155 518q33 113 152 113q76 0 119 -44t43 -110q-4 -57 -49 -178l-224 -625q-28 -81 -74 -119t-125 -38t-119 39t-71 129l-125 376h-4l-125 -376
q-31 -90 -71 -129t-118 -39q-79 0 -125 38t-75 119l-223 625q-45 121 -49 178q0 66 43 110t119 44z" />
    <glyph glyph-name="x" unicode="x" horiz-adv-x="1024" 
d="M182 1102q57 0 91 -16t69 -62l170 -211l170 211q35 45 69 61q34 17 91 17t104 -46t47 -109t-47 -114q-18 -22 -76 -83l-165 -177l272 -288q63 -74 63 -142q0 -67 -48 -111t-118 -44t-139 82l-223 260l-223 -260q-70 -82 -140 -82q-69 0 -117 44t-48 112t63 141l272 288
l-165 177q-57 61 -76 83q-47 57 -47 117t47 106t104 46z" />
    <glyph glyph-name="y" unicode="y" horiz-adv-x="1024" 
d="M0 966q0 54 46 95t110 41q117 0 163 -121l189 -487l178 434q35 86 74 130q38 44 106 44t113 -44t45 -106t-39 -151l-473 -1104q-52 -124 -106 -141q-29 -10 -68 -11q-78 0 -118 47q-40 48 -40 100t53 173l107 239l-272 650q-68 158 -68 212z" />
    <glyph glyph-name="z" unicode="z" horiz-adv-x="948" 
d="M143 0q-153 0 -153 113q0 50 49 118l410 564h-281q-168 0 -168 147t168 148h614q82 0 116 -34t34 -75t-41 -98l-438 -588h338q168 0 167 -148q0 -147 -167 -147h-648z" />
    <glyph glyph-name="braceleft" unicode="{" horiz-adv-x="720" 
d="M201 -76v416q0 84 -26 110t-73 26q-46 0 -72 28q-26 30 -26 70t26 69t72 29t73 26q26 26 26 109v416q0 268 272 268h152q41 0 67 -24q26 -25 25 -69q0 -44 -26 -68t-66 -23h-52q-90 0 -90 -119v-406q0 -132 -86 -172q-58 -26 -135 -35v-4q157 -15 199 -97q23 -44 22 -109
v-406q0 -119 90 -119h52q41 0 67 -24t25 -68q0 -45 -26 -69t-66 -23h-152q-272 0 -272 268z" />
    <glyph glyph-name="bar" unicode="|" horiz-adv-x="454" 
d="M104 -512v2048q0 57 32 95t91 38t91 -38t32 -95v-2048q0 -57 -32 -95t-91 -38t-91 38t-32 95z" />
    <glyph glyph-name="braceright" unicode="}" horiz-adv-x="720" 
d="M520 1223v-416q0 -84 26 -110q26 -25 72 -25t73 -29q26 -29 26 -70t-26 -69t-73 -29q-46 1 -72 -25t-26 -110v-416q0 -268 -272 -268h-152q-40 0 -66 24t-26 68q0 45 26 69t66 23h51q90 0 91 119v406q0 132 86 172q61 27 135 34v4q-157 15 -199 98q-23 44 -22 109v406
q0 119 -91 119h-51q-40 -1 -66 23t-26 69t26 69t66 23h152q272 0 272 -268z" />
    <glyph glyph-name="asciitilde" unicode="~" horiz-adv-x="1228" 
d="M1057 768q88 0 88 -110t-84 -196t-217 -87q-88 -1 -244 69t-208 70t-117 -61t-103 -62q-88 0 -88 110q0 111 82 197t192 86t270 -70t210 -69q50 -1 115 61t104 62z" />
    <glyph glyph-name="uni00A0" unicode="&#xa0;" horiz-adv-x="569" 
 />
    <glyph glyph-name="exclamdown" unicode="&#xa1;" horiz-adv-x="532" 
d="M444 945q0 -73 -53 -126t-125 -53t-125 53t-53 126t53 125t125 52t125 -52t53 -125zM106 -221v719q0 76 44 128t116 52q74 0 117 -52t43 -128v-719q0 -76 -43 -128t-117 -52t-117 52t-43 128z" />
    <glyph glyph-name="cent" unicode="&#xa2;" horiz-adv-x="1290" 
d="M668 -164v131q-217 23 -350 186q-132 163 -132 392t132 391t350 186v119q0 25 18 44t43 19t43 -18q18 -20 19 -45v-119q127 -10 220 -60t93 -151q0 -63 -38 -106t-84 -43t-98 22t-93 27v-530q51 5 108 27t74 22q53 0 92 -44t39 -98q0 -92 -98 -150t-215 -71v-131
q-1 -25 -19 -44t-43 -19t-43 19t-18 44zM506 545q0 -96 43 -169t119 -93v520q-78 -20 -120 -91t-42 -167z" />
    <glyph glyph-name="sterling" unicode="&#xa3;" horiz-adv-x="1290" 
d="M788 887q82 0 128 -46q46 -45 46 -107t-46 -108t-128 -46h-135q0 -86 -15 -142t-65 -119h543q82 0 131 -44q49 -43 49 -115t-49 -116t-131 -44h-756q-84 0 -140 40t-56 106q0 102 73 175q29 27 57 95t38 164h-129q-82 0 -128 46t-46 107t46 107t128 47h67
q-45 115 -45 178q-1 197 147 311t394 115q141 0 249 -39q175 -63 248 -219q66 -139 -20 -221q-47 -45 -100 -45q-53 -1 -83 23t-49 58t-44 68q-60 81 -201 80q-82 0 -139 -43t-58 -123q0 -34 39 -143h180z" />
    <glyph glyph-name="currency" unicode="&#xa4;" horiz-adv-x="1290" 
d="M646 1006q-112 0 -188 -81t-77 -197q0 -116 76 -196q75 -80 189 -80t189 80t74 197q0 117 -75 197q-76 80 -188 80zM123 729q0 162 86 287l-49 47q-31 31 -31 71t32 72q33 32 77 33q44 0 79 -35l39 -39q125 86 289 86t289 -86l39 39q35 35 80 35t77 -33q32 -32 31 -72
q0 -40 -31 -71l-49 -47q86 -125 86 -287t-86 -287l49 -47q31 -31 31 -71t-32 -72q-33 -33 -77 -33t-79 35l-39 39q-125 -86 -289 -86t-289 86l-39 -39q-35 -35 -80 -35t-77 33q-32 32 -31 72q0 40 31 71l49 47q-86 125 -86 287z" />
    <glyph glyph-name="yen" unicode="&#xa5;" horiz-adv-x="1290" 
d="M811 373v-209q0 -86 -45 -131t-121 -45t-121 45t-45 131v209h-295q-38 1 -68 31t-30 69t30 68t68 28h295v115h-295q-38 0 -68 31t-30 69t30 68q30 29 68 29h156l-147 188q-113 158 -125 191t-13 63q0 66 50 107q51 40 109 40t94 -20t51 -38t40 -54l246 -350l246 350
q25 35 40 53q15 19 51 39t94 20t109 -40q50 -40 50 -98q0 -56 -24 -97t-113 -166l-148 -188h156q39 0 69 -29q29 -29 29 -68q0 -40 -30 -70t-68 -30h-295v-115h295q39 -1 69 -29q29 -28 29 -67t-30 -70t-68 -30h-295z" />
    <glyph glyph-name="brokenbar" unicode="&#xa6;" horiz-adv-x="454" 
d="M104 -225v450q0 57 32 95t91 38t91 -38t32 -95v-450q0 -57 -32 -95t-91 -38t-91 38t-32 95zM104 799v450q0 57 32 95t91 38t91 -38t32 -95v-450q0 -57 -32 -95t-91 -38t-91 38t-32 95z" />
    <glyph glyph-name="section" unicode="&#xa7;" horiz-adv-x="1251" 
d="M401 625q0 -29 29 -61q30 -32 54 -48t83 -51l199 -119q84 51 84 131q0 43 -41 78t-123 82l-201 119q-84 -51 -84 -131zM119 580q0 199 196 315q-59 51 -82 102t-22 131q0 158 117 260t296 103q179 0 307 -85t128 -208q0 -51 -37 -94t-84 -43q-75 0 -151 92q-27 35 -71 64
t-90 29t-77 -26q-31 -24 -31 -74q0 -86 217 -192q90 -43 180 -93q89 -50 153 -135t65 -194q0 -227 -191 -327q111 -92 111 -201q0 -186 -120 -286t-301 -99q-181 0 -314 82q-132 82 -132 207q0 53 36 93t86 40q78 0 144 -88q24 -33 70 -61t100 -28q124 1 124 94
q-1 84 -222 197q-92 46 -184 100t-157 138q-64 85 -64 187z" />
    <glyph glyph-name="dieresis" unicode="&#xa8;" horiz-adv-x="454" 
d="M-10 1577q66 0 112 -47t48 -113q0 -67 -48 -113t-112 -46q-66 0 -113 46q-47 48 -47 114t47 112q47 47 113 47zM465 1577q66 0 113 -47t47 -113q0 -67 -47 -113t-113 -46t-113 46q-47 48 -47 114t47 112q47 47 113 47z" />
    <glyph glyph-name="copyright" unicode="&#xa9;" horiz-adv-x="1638" 
d="M442 738q0 190 110 314t294 124q146 0 242 -79t96 -167q0 -51 -29 -76t-57 -25q-70 0 -107 89q-31 74 -145 73q-84 1 -133 -67t-49 -184t50 -188t144 -71q94 0 135 78q27 49 50 71q24 22 63 22q38 0 62 -26q24 -24 24 -65q0 -76 -98 -170t-244 -94q-182 0 -295 125
q-113 126 -113 316zM291 729q-1 -254 151 -416q152 -161 376 -161t377 162t153 415q0 254 -153 416t-377 162t-376 -162t-151 -416zM57 729q-1 177 63 323q118 273 414 387q136 52 286 52q304 0 528 -199q106 -94 170 -240t63 -322q0 -176 -63 -323q-118 -274 -413 -388
q-136 -52 -286 -52q-304 0 -528 199q-106 94 -170 240t-64 323z" />
    <glyph glyph-name="ordfeminine" unicode="&#xaa;" horiz-adv-x="761" 
d="M244 1145q0 -59 38 -103t100 -45q62 1 99 45t37 104t-37 104t-99 44t-100 -45t-38 -104zM739 1401v-510q-1 -41 -29 -66t-90 -25t-88 72q-70 -72 -180 -71q-141 0 -235 100q-94 99 -94 245t94 246t222 99q128 0 193 -72q27 72 97 72q110 0 110 -90z" />
    <glyph glyph-name="guillemotleft" unicode="&#xab;" horiz-adv-x="1214" 
d="M629 568q0 108 82 171l172 125q59 43 105 43q46 1 75 -31t29 -90t-56 -96l-182 -119l182 -120q56 -35 56 -93t-29 -91q-65 -72 -180 12l-172 124q-82 57 -82 165zM123 568q0 108 82 171l172 125q59 43 105 43q46 1 75 -31t29 -90t-56 -96l-182 -119l182 -120
q56 -35 56 -93t-29 -91q-65 -72 -180 12l-172 124q-82 57 -82 165z" />
    <glyph glyph-name="logicalnot" unicode="&#xac;" horiz-adv-x="1228" 
d="M178 956h852q98 0 131 -34t33 -129v-416q0 -63 -35 -103t-94 -41q-59 0 -94 40t-35 104v309h-758q-66 0 -104 36t-39 99q1 63 39 99t104 36z" />
    <glyph glyph-name="uni00AD" unicode="&#xad;" horiz-adv-x="872" 
d="M195 707h483q63 0 99 -37q36 -36 36 -98t-36 -99t-99 -37h-483q-63 0 -100 37q-36 37 -36 98t36 99q37 37 100 37z" />
    <glyph glyph-name="registered" unicode="&#xae;" horiz-adv-x="1638" 
d="M700 991v-180h154q109 0 109 90t-109 90h-154zM516 426v621q0 43 27 67t65 25h256q147 1 221 -55t74 -176t-55 -180t-133 -64l143 -193q25 -33 25 -61t-22 -53q-23 -23 -61 -23t-59 14q-20 14 -47 53l-188 263h-62v-238q0 -45 -26 -69q-26 -23 -65 -23q-41 0 -67 24
t-26 68zM291 729q-1 -254 151 -416q152 -161 376 -161t377 162t153 415q0 254 -153 416t-377 162t-376 -162t-151 -416zM57 729q-1 177 63 323q118 273 414 387q136 52 286 52q304 0 528 -199q106 -94 170 -240t63 -322q0 -176 -63 -323q-118 -274 -413 -388
q-136 -52 -286 -52q-304 0 -528 199q-106 94 -170 240t-64 323z" />
    <glyph glyph-name="macron" unicode="&#xaf;" horiz-adv-x="454" 
d="M-18 1546h491q61 0 95 -35t34 -94t-34 -94t-95 -35h-491q-59 0 -95 35q-35 35 -34 94q0 59 34 94q36 35 95 35z" />
    <glyph glyph-name="degree" unicode="&#xb0;" horiz-adv-x="819" 
d="M117 1198q0 123 85 208t208 85q124 0 208 -85t84 -208t-85 -208t-207 -85t-208 85q-85 85 -85 208zM264 1198q0 -59 44 -102t102 -43t101 43q44 43 44 102t-44 102t-101 43q-58 0 -102 -43t-44 -102z" />
    <glyph glyph-name="plusminus" unicode="&#xb1;" horiz-adv-x="1228" 
d="M178 270h873q67 0 105 -36t38 -99t-39 -99t-104 -36h-873q-66 0 -104 36t-39 99q1 63 39 99t104 36zM178 881h301v135q0 66 36 104t99 39q64 0 100 -39t36 -104v-135h301q67 0 105 -36q38 -35 38 -99t-39 -100t-104 -36h-301v-135q0 -67 -36 -105t-100 -38t-99 39
q-36 39 -36 104v135h-301q-66 0 -104 36t-39 99q1 63 39 99t104 37z" />
    <glyph glyph-name="twosuperior" unicode="&#xb2;" horiz-adv-x="739" 
d="M608 793q47 0 73 -29t26 -70q0 -42 -26 -70t-73 -28h-450q-49 0 -87 25t-38 63t66 111q67 71 145 137t144 144t65 122q0 44 -29 64t-68 20q-38 0 -62 -27t-30 -57t-33 -58q-27 -26 -77 -26t-77 29q-28 29 -28 65q0 117 92 200q91 83 229 83t227 -74t89 -192
q0 -61 -36 -129t-70 -107t-107 -107q-72 -68 -90 -89h225z" />
    <glyph glyph-name="threesuperior" unicode="&#xb3;" horiz-adv-x="763" 
d="M264 1056q0 46 30 68t64 26q34 3 65 21q30 18 30 58q0 53 -84 53q-51 0 -103 -44t-97 -44t-69 28t-24 64q0 94 96 150t213 55q117 0 203 -66q86 -67 86 -175t-115 -173q78 -31 119 -90t41 -133q0 -121 -96 -196q-95 -74 -233 -74t-242 70q-103 71 -103 165q0 41 28 68
q29 27 69 27q76 -1 110 -61q35 -60 131 -60q41 1 72 29t30 63q0 83 -109 86q-42 0 -77 20q-35 19 -35 65z" />
    <glyph glyph-name="acute" unicode="&#xb4;" horiz-adv-x="454" 
d="M-6 1356q0 84 76 112l307 134q41 18 92 18t88 -41t37 -100q0 -84 -76 -113l-307 -133q-41 -19 -92 -19t-88 41t-37 101z" />
    <glyph glyph-name="mu" unicode="&#xb5;" 
d="M74 -289v1225q0 70 45 118t115 48t114 -48q45 -48 45 -118v-494q0 -84 53 -130t129 -46t123 54t47 139v477q-1 70 45 118t116 48t114 -48q45 -48 45 -118v-782q0 -70 -45 -118t-115 -48q-102 0 -149 102q-84 -102 -196 -102t-163 100h-4v-377q0 -70 -45 -118t-115 -48
q-71 0 -115 48t-44 118z" />
    <glyph glyph-name="paragraph" unicode="&#xb6;" horiz-adv-x="1269" 
d="M477 -246v989q-221 1 -339 93t-118 258q0 204 132 284t372 80h520q56 0 90 -34t33 -89v-1581q-1 -55 -33 -89t-90 -34t-90 34q-33 34 -32 89v1520h-199v-1520q0 -55 -33 -89t-90 -34t-90 34t-33 89z" />
    <glyph glyph-name="periodcentered" unicode="&#xb7;" horiz-adv-x="569" 
d="M285 391q-71 0 -125 52t-54 125t54 126q54 54 125 54q72 0 125 -54t53 -126q0 -73 -53 -125t-125 -52z" />
    <glyph glyph-name="cedilla" unicode="&#xb8;" horiz-adv-x="454" 
d="M319 -104q72 0 118 -44t46 -126t-82 -132t-174 -49q-205 0 -204 97q0 26 16 48q15 22 37 22t59 -16q37 -15 62 -15t45 18t20 47t-19 43t-44 14h-41q-18 1 -32 15t-15 40q0 26 55 91l43 51h141l-80 -106q16 2 49 2z" />
    <glyph glyph-name="onesuperior" unicode="&#xb9;" horiz-adv-x="516" 
d="M147 700v582h-71q-47 0 -73 29t-26 69t26 70q26 29 73 29h188q49 0 83 -28t34 -85v-666q0 -49 -32 -83q-32 -33 -86 -33t-85 34t-31 82z" />
    <glyph glyph-name="ordmasculine" unicode="&#xba;" horiz-adv-x="737" 
d="M233 1145q0 -59 37 -103q36 -44 98 -45q62 0 99 44q37 43 37 103t-37 105t-98 45t-99 -45t-37 -104zM368 1491q159 -1 258 -99t99 -244t-100 -246t-258 -101q-158 0 -256 99q-99 98 -99 246t98 246t258 99z" />
    <glyph glyph-name="guillemotright" unicode="&#xbb;" horiz-adv-x="1214" 
d="M586 574q0 -108 -82 -171l-172 -124q-60 -43 -106 -43t-74 32t-29 90q0 58 55 95l182 118l-182 121q-55 36 -55 94t29 90q65 72 180 -12l172 -125q82 -57 82 -165zM1092 574q0 -108 -82 -171l-172 -124q-60 -43 -106 -43t-75 32t-28 76q0 72 55 109l182 118l-182 121
q-55 36 -55 94t28 90q65 72 181 -12l172 -125q82 -57 82 -165z" />
    <glyph glyph-name="onequarter" unicode="&#xbc;" horiz-adv-x="1935" 
d="M229 700v582h-71q-47 0 -73 29t-26 69t26 70q26 29 73 29h188q49 0 83 -28t34 -85v-666q0 -49 -32 -83q-32 -33 -86 -33t-85 34t-31 82zM1232 1491q46 0 81 -34t35 -80t-64 -152l-661 -1149q-31 -55 -59 -82t-74 -27t-80 34q-35 34 -35 80t63 152l662 1149q31 55 58 82
q28 27 74 27zM1489 369v260h-4l-174 -260h178zM1489 84v88h-354q-55 0 -82 25t-27 61t41 100l317 455q29 47 66 63q36 16 108 17q72 0 118 -41t46 -109v-374h58q48 0 72 -27t24 -72q0 -46 -25 -72t-71 -26h-58v-88q0 -45 -30 -71q-30 -25 -87 -25q-56 0 -86 26t-30 70z" />
    <glyph glyph-name="onehalf" unicode="&#xbd;" horiz-adv-x="1935" 
d="M1751 197q47 0 73 -29t26 -70q0 -42 -26 -70t-73 -28h-451q-49 0 -87 25q-37 25 -37 63q0 70 210 248q78 66 144 144t66 122q0 45 -29 65q-29 19 -68 19t-63 -27t-29 -57q-6 -30 -33 -58q-27 -26 -77 -26q-49 0 -77 29t-28 65q0 117 92 200t230 83t226 -74
q89 -74 89 -192q0 -61 -36 -129t-71 -107q-34 -39 -106 -107t-90 -89h225zM256 700v582h-72q-46 0 -72 29t-26 69t26 70q26 29 72 29h189q49 0 83 -28t33 -85v-666q1 -49 -31 -83q-32 -33 -86 -33t-85 34t-31 82zM1256 1491q46 0 81 -34t35 -80t-63 -152l-662 -1149
q-31 -55 -59 -82t-73 -27q-46 0 -81 34q-34 34 -34 80t63 152l661 1149q31 55 59 82q27 27 73 27z" />
    <glyph glyph-name="threequarters" unicode="&#xbe;" horiz-adv-x="1935" 
d="M1489 369v260h-4l-174 -260h178zM1489 84v88h-354q-55 0 -82 25t-27 61t41 100l317 455q50 70 148 70t144 -41t46 -109v-364h58q48 0 72 -27t24 -72q0 -46 -25 -72t-71 -26h-58v-88q0 -45 -30 -71q-30 -25 -87 -25q-56 0 -86 26t-30 70zM500 885q0 83 -110 86
q-42 0 -77 20q-35 19 -35 65t30 68t65 26q94 8 94 79q0 53 -84 53q-51 0 -103 -44t-96 -44t-70 28q-24 28 -24 64q0 94 96 150t213 55q117 0 203 -66q86 -67 86 -175t-115 -173q78 -31 119 -90t41 -133q0 -121 -96 -196q-95 -74 -233 -74t-241 70t-104 165q0 41 28 68t69 27
q75 -1 110 -61t131 -60q41 1 72 29t31 63zM1342 1491q46 0 81 -34t35 -80t-63 -152l-662 -1149q-31 -55 -59 -82t-73 -27q-46 0 -81 34q-34 34 -34 80t63 152l661 1149q31 55 59 82q27 27 73 27z" />
    <glyph glyph-name="questiondown" unicode="&#xbf;" horiz-adv-x="1024" 
d="M725 945q0 -73 -53 -126t-125 -53t-125 53t-53 126t53 125t125 52t125 -52t53 -125zM707 518v-164q0 -79 -52 -104q-38 -18 -110 -31q-156 -31 -156 -156q0 -51 41 -92q40 -41 100 -41q101 0 153 66q21 28 43 54q52 64 123 64q69 1 113 -45t44 -108q0 -162 -148 -262
t-340 -100q-190 0 -338 123q-147 124 -147 331q0 352 354 424v41q0 72 44 116t116 44t116 -44t44 -116z" />
    <glyph glyph-name="Agrave" unicode="&#xc0;" horiz-adv-x="1290" 
d="M879 1696q0 -58 -37 -100q-36 -42 -88 -42t-92 19l-308 133q-76 29 -75 113q0 59 36 100q37 41 89 41t92 -18l307 -134q76 -29 76 -112zM819 588l-166 534h-4l-178 -534h348zM826 1398q34 -50 52 -89t46 -119l319 -862q49 -134 49 -200t-44 -103t-116 -37t-110 40
q-37 40 -64 122l-40 131h-545l-41 -131q-27 -82 -64 -122q-38 -40 -110 -40t-116 37t-44 103t49 200l320 862q29 80 46 119t50 89q61 93 181 93q119 0 182 -93z" />
    <glyph glyph-name="Aacute" unicode="&#xc1;" horiz-adv-x="1290" 
d="M412 1696q0 84 75 112l308 134q41 18 92 18t88 -41t37 -100q0 -84 -76 -113l-307 -133q-41 -19 -92 -19t-88 41t-37 101zM819 588l-166 534h-4l-178 -534h348zM826 1398q34 -50 52 -89t46 -119l319 -862q49 -134 49 -200t-44 -103t-116 -37t-110 40q-37 40 -64 122
l-40 131h-545l-41 -131q-27 -82 -64 -122q-38 -40 -110 -40t-116 37t-44 103t49 200l320 862q29 80 46 119t50 89q61 93 181 93q119 0 182 -93z" />
    <glyph glyph-name="Acircumflex" unicode="&#xc2;" horiz-adv-x="1290" 
d="M337 1554q-42 0 -75 36t-33 93t24 89t85 61l180 82q102 45 127 45t127 -45l180 -82q61 -29 85 -61t24 -88q0 -58 -33 -94t-75 -36t-111 31l-197 90l-196 -90q-70 -31 -112 -31zM819 588l-166 534h-4l-178 -534h348zM826 1398q34 -50 52 -89t46 -119l319 -862
q49 -134 49 -200t-44 -103t-116 -37t-110 40q-37 40 -64 122l-40 131h-545l-41 -131q-27 -82 -64 -122q-38 -40 -110 -40t-116 37t-44 103t49 200l320 862q29 80 46 119t50 89q61 93 181 93q119 0 182 -93z" />
    <glyph glyph-name="Atilde" unicode="&#xc3;" horiz-adv-x="1290" 
d="M209 1700q0 70 62 140q61 70 143 69q82 0 211 -47q123 -50 161 -50t87 48t97 49q48 0 80 -38q32 -37 32 -107t-63 -140t-147 -70t-206 48t-161 49q-38 0 -88 -48q-50 -49 -97 -49t-79 38t-32 108zM819 588l-166 534h-4l-178 -534h348zM826 1398q34 -50 52 -89t46 -119
l319 -862q49 -134 49 -200t-44 -103t-116 -37t-110 40q-37 40 -64 122l-40 131h-545l-41 -131q-27 -82 -64 -122q-38 -40 -110 -40t-116 37t-44 103t49 200l320 862q29 80 46 119t50 89q61 93 181 93q119 0 182 -93z" />
    <glyph glyph-name="Adieresis" unicode="&#xc4;" horiz-adv-x="1290" 
d="M408 1917q66 0 112 -47t47 -113q0 -67 -47 -113q-46 -46 -112 -46t-113 46q-47 48 -47 114t47 112q47 47 113 47zM883 1917q67 0 113 -47t46 -113q0 -67 -47 -113t-113 -46t-112 46q-47 48 -47 114t47 112q47 47 113 47zM819 588l-166 534h-4l-178 -534h348zM826 1398
q34 -50 52 -89t46 -119l319 -862q49 -134 49 -200t-44 -103t-116 -37t-110 40q-37 40 -64 122l-40 131h-545l-41 -131q-27 -82 -64 -122q-38 -40 -110 -40t-116 37t-44 103t49 200l320 862q29 80 46 119t50 89q61 93 181 93q119 0 182 -93z" />
    <glyph glyph-name="Aring" unicode="&#xc5;" horiz-adv-x="1290" 
d="M553 1735q0 -37 28 -65q29 -28 65 -28t64 28t27 65q1 37 -27 65t-65 27q-37 1 -65 -27t-27 -65zM442 1735q0 84 60 143t143 59q84 0 143 -59q60 -59 60 -143q0 -83 -60 -143t-143 -60t-143 60t-60 143zM819 588l-166 534h-4l-178 -534h348zM826 1398q34 -50 52 -89
t46 -119l319 -862q49 -134 49 -200t-44 -103t-116 -37t-110 40q-37 40 -64 122l-40 131h-545l-41 -131q-27 -82 -64 -122q-38 -40 -110 -40t-116 37t-44 103t49 200l320 862q29 80 46 119t50 89q61 93 181 93q119 0 182 -93z" />
    <glyph glyph-name="AE" unicode="&#xc6;" horiz-adv-x="1744" 
d="M874 588v559h-4l-295 -559h299zM1548 1458q78 0 122 -42t44 -112t-44 -112q-44 -41 -122 -41h-342v-264h314q78 0 122 -41t44 -113q0 -73 -44 -113t-122 -40h-314v-273h357q77 0 121 -41q44 -42 44 -112t-44 -112t-121 -42h-523q-68 0 -116 45t-50 121v115h-464l-64 -127
q-31 -64 -48 -92t-57 -52q-41 -24 -101 -22q-60 0 -101 44t-41 116t45 149l596 1014q55 96 109 122t174 25h626z" />
    <glyph glyph-name="Ccedilla" unicode="&#xc7;" horiz-adv-x="1214" 
d="M725 -104q72 0 118 -44t46 -126t-82 -132t-174 -49q-205 0 -205 97q0 26 16 48t38 22t58 -16q38 -15 62 -15t45 18q20 18 21 47q0 29 -20 43t-44 14h-41q-19 1 -33 15t-14 40t55 91l27 35q-260 49 -408 256q-147 207 -147 489q0 336 199 549t524 213q176 0 308 -56
t132 -175q0 -62 -41 -110t-88 -48t-139 35t-164 34q-188 0 -281 -128t-93 -312t90 -308q91 -124 255 -124q119 0 208 34t133 34t80 -32t44 -62t8 -78t-44 -97q-45 -48 -117 -76q-137 -52 -297 -55q-21 0 -29 2l-55 -75q16 2 49 2z" />
    <glyph glyph-name="Egrave" unicode="&#xc8;" horiz-adv-x="948" 
d="M709 1696q0 -58 -37 -100q-36 -42 -88 -42t-92 19l-308 133q-76 29 -75 113q0 59 36 100q37 41 89 41t92 -18l307 -134q76 -29 76 -112zM80 166v1126q0 76 49 121t117 45h508q78 0 122 -42t44 -112t-44 -112q-44 -41 -122 -41h-342v-264h313q78 0 122 -41t44 -113
q0 -73 -44 -113t-122 -40h-313v-273h354q78 0 122 -41q44 -42 44 -112t-44 -112t-122 -42h-520q-68 0 -117 45t-49 121z" />
    <glyph glyph-name="Eacute" unicode="&#xc9;" horiz-adv-x="948" 
d="M242 1696q0 84 75 112l308 134q41 18 92 18t88 -41t37 -100q0 -84 -76 -113l-307 -133q-41 -19 -92 -19t-88 41t-37 101zM80 166v1126q0 76 49 121t117 45h508q78 0 122 -42t44 -112t-44 -112q-44 -41 -122 -41h-342v-264h313q78 0 122 -41t44 -113q0 -73 -44 -113
t-122 -40h-313v-273h354q78 0 122 -41q44 -42 44 -112t-44 -112t-122 -42h-520q-68 0 -117 45t-49 121z" />
    <glyph glyph-name="Ecircumflex" unicode="&#xca;" horiz-adv-x="948" 
d="M167 1554q-42 0 -75 36t-33 93t24 89t85 61l180 82q102 45 127 45t127 -45l180 -82q61 -29 85 -61t24 -88q0 -58 -33 -94t-75 -36t-111 31l-197 90l-196 -90q-70 -31 -112 -31zM80 166v1126q0 76 49 121t117 45h508q78 0 122 -42t44 -112t-44 -112q-44 -41 -122 -41h-342
v-264h313q78 0 122 -41t44 -113q0 -73 -44 -113t-122 -40h-313v-273h354q78 0 122 -41q44 -42 44 -112t-44 -112t-122 -42h-520q-68 0 -117 45t-49 121z" />
    <glyph glyph-name="Edieresis" unicode="&#xcb;" horiz-adv-x="948" 
d="M238 1917q66 0 112 -47t47 -113q0 -67 -47 -113q-46 -46 -112 -46t-113 46q-47 48 -47 114t47 112q47 47 113 47zM713 1917q67 0 113 -47t46 -113q0 -67 -47 -113t-113 -46t-112 46q-47 48 -47 114t47 112q47 47 113 47zM80 166v1126q0 76 49 121t117 45h508
q78 0 122 -42t44 -112t-44 -112q-44 -41 -122 -41h-342v-264h313q78 0 122 -41t44 -113q0 -73 -44 -113t-122 -40h-313v-273h354q78 0 122 -41q44 -42 44 -112t-44 -112t-122 -42h-520q-68 0 -117 45t-49 121z" />
    <glyph glyph-name="Igrave" unicode="&#xcc;" horiz-adv-x="491" 
d="M479 1696q0 -58 -37 -100t-88 -42t-92 19l-307 133q-76 29 -76 113q0 59 37 100t88 41t92 -18l307 -134q76 -29 76 -112zM412 1294v-1130q0 -86 -46 -131t-120 -45t-120 45t-46 131v1130q0 86 46 131t120 45t120 -45t46 -131z" />
    <glyph glyph-name="Iacute" unicode="&#xcd;" horiz-adv-x="491" 
d="M12 1696q0 84 76 112l307 134q41 18 92 18t88 -41t37 -100q1 -84 -75 -113l-308 -133q-41 -19 -92 -19t-88 41t-37 101zM412 1294v-1130q0 -86 -46 -131t-120 -45t-120 45t-46 131v1130q0 86 46 131t120 45t120 -45t46 -131z" />
    <glyph glyph-name="Icircumflex" unicode="&#xce;" horiz-adv-x="491" 
d="M-62 1554q-42 0 -75 36t-33 93t24 89t85 61l180 82q102 45 127 45t127 -45l180 -82q61 -29 85 -61t24 -88q0 -58 -33 -94t-75 -36t-112 31l-196 90l-197 -90q-69 -31 -111 -31zM412 1294v-1130q0 -86 -46 -131t-120 -45t-120 45t-46 131v1130q0 86 46 131t120 45t120 -45
t46 -131z" />
    <glyph glyph-name="Idieresis" unicode="&#xcf;" horiz-adv-x="491" 
d="M8 1917q66 0 113 -47t47 -113q0 -67 -47 -113t-113 -46t-112 46q-46 48 -48 114q0 66 47 112q47 47 113 47zM483 1917q66 0 113 -47t47 -113q0 -67 -47 -113t-113 -46q-67 0 -113 46q-46 48 -46 114t46 112q46 47 113 47zM412 1294v-1130q0 -86 -46 -131t-120 -45
t-120 45t-46 131v1130q0 86 46 131t120 45t120 -45t46 -131z" />
    <glyph glyph-name="Eth" unicode="&#xd0;" horiz-adv-x="1366" 
d="M412 1151v-283h168q61 0 95 -34t34 -94t-34 -95t-95 -35h-168v-303h176q186 0 282 117t96 310t-94 305t-270 112h-190zM80 166v444h-55q-59 0 -95 35q-35 35 -34 94q0 59 34 95q35 35 95 34h55v424q0 76 49 121t117 45h397q311 0 495 -211t185 -508q0 -343 -198 -541
t-482 -198h-397q-68 0 -117 45t-49 121z" />
    <glyph glyph-name="Ntilde" unicode="&#xd1;" horiz-adv-x="1441" 
d="M285 1700q0 70 62 140q61 70 143 69q82 0 208 -48q126 -49 163 -49q38 0 88 48t97 49q47 0 79 -38q32 -37 32 -107t-62 -140q-63 -70 -147 -70t-207 48t-161 49q-38 0 -87 -48q-49 -49 -97 -49t-80 38q-31 38 -31 108zM80 164v1130q0 86 46 131t114 45t106 -32
q39 -32 129 -146l551 -690h4v692q0 86 46 131t120 45t120 -45t46 -131v-1130q0 -86 -46 -131t-114 -45t-108 32q-39 32 -127 146l-551 690h-4v-692q0 -86 -46 -131t-120 -45t-120 45t-46 131z" />
    <glyph glyph-name="Ograve" unicode="&#xd2;" horiz-adv-x="1519" 
d="M868 1554q-51 0 -92 19l-307 133q-76 29 -76 113q0 59 37 100t88 41t92 -18l308 -134q76 -29 75 -112q0 -58 -37 -100t-88 -42zM760 1184q-180 0 -270 -132t-91 -322q0 -190 90 -323q91 -133 271 -133t270 132t90 323t-90 323t-270 132zM760 1491q326 0 522 -208
t195 -554q0 -346 -196 -554q-195 -208 -521 -208t-522 208t-195 554q-1 346 195 554t522 208z" />
    <glyph glyph-name="Oacute" unicode="&#xd3;" horiz-adv-x="1519" 
d="M526 1696q0 84 76 112l307 134q41 18 92 18t89 -41t36 -100q1 -84 -75 -113l-308 -133q-41 -19 -92 -19t-88 41t-37 101zM760 1184q-180 0 -270 -132t-91 -322q0 -190 90 -323q91 -133 271 -133t270 132t90 323t-90 323t-270 132zM760 1491q326 0 522 -208t195 -554
q0 -346 -196 -554q-195 -208 -521 -208t-522 208t-195 554q-1 346 195 554t522 208z" />
    <glyph glyph-name="Ocircumflex" unicode="&#xd4;" horiz-adv-x="1519" 
d="M452 1554q-42 0 -75 36t-33 93t24 89t85 61l180 82q102 45 127 45t127 -45l180 -82q61 -29 85 -61t24 -88q0 -58 -33 -94t-75 -36t-112 31l-196 90l-197 -90q-69 -31 -111 -31zM760 1184q-180 0 -270 -132t-91 -322q0 -190 90 -323q91 -133 271 -133t270 132t90 323
t-90 323t-270 132zM760 1491q326 0 522 -208t195 -554q0 -346 -196 -554q-195 -208 -521 -208t-522 208t-195 554q-1 346 195 554t522 208z" />
    <glyph glyph-name="Otilde" unicode="&#xd5;" horiz-adv-x="1519" 
d="M324 1700q0 70 62 140t143 69q81 0 210 -47q123 -50 161 -50t88 48t97 49q47 0 79 -38q32 -37 32 -107t-62 -140t-146 -70t-208 48q-122 48 -160 49q-38 0 -88 -48q-50 -49 -98 -49q-47 0 -79 38q-31 38 -31 108zM760 1184q-180 0 -270 -132t-91 -322q0 -190 90 -323
q91 -133 271 -133t270 132t90 323t-90 323t-270 132zM760 1491q326 0 522 -208t195 -554q0 -346 -196 -554q-195 -208 -521 -208t-522 208t-195 554q-1 346 195 554t522 208z" />
    <glyph glyph-name="Odieresis" unicode="&#xd6;" horiz-adv-x="1519" 
d="M522 1917q66 0 113 -47t47 -113q0 -67 -47 -113t-113 -46t-112 46q-46 48 -48 114q0 66 47 112q47 47 113 47zM997 1917q66 0 113 -47t47 -113q0 -67 -47 -113t-113 -46q-67 0 -113 46q-46 48 -46 114t46 112q46 47 113 47zM760 1184q-180 0 -270 -132t-91 -322
q0 -190 90 -323q91 -133 271 -133t270 132t90 323t-90 323t-270 132zM760 1491q326 0 522 -208t195 -554q0 -346 -196 -554q-195 -208 -521 -208t-522 208t-195 554q-1 346 195 554t522 208z" />
    <glyph glyph-name="multiply" unicode="&#xd7;" horiz-adv-x="1228" 
d="M978 1085q40 0 91 -46t51 -93t-39 -86l-282 -280l282 -283q39 -39 39 -84t-47 -92t-92 -47t-84 39l-283 282l-282 -282q-39 -39 -82 -39t-94 47q-92 92 -11 176l283 283l-283 280q-37 37 -37 83t49 94q48 48 91 48t84 -41l282 -280l283 280q41 41 81 41z" />
    <glyph glyph-name="Oslash" unicode="&#xd8;" horiz-adv-x="1519" 
d="M43 729q0 346 196 554t521 208q260 0 438 -135l127 141q45 51 86 51t69 -24t28 -66q0 -43 -50 -96l-127 -139q145 -201 146 -494q0 -346 -196 -554t-521 -208q-262 0 -441 137l-124 -137q-45 -51 -86 -51t-69 24t-28 66t49 96l125 138q-143 197 -143 489zM760 274
q180 0 270 132t90 323q0 121 -37 219l-540 -598q86 -76 217 -76zM760 1184q-180 0 -270 -132t-91 -323q0 -121 37 -215l539 596q-86 74 -215 74z" />
    <glyph glyph-name="Ugrave" unicode="&#xd9;" horiz-adv-x="1402" 
d="M936 1696q0 -58 -37 -100t-88 -42t-92 19l-307 133q-76 29 -76 113q0 59 37 100t88 41t92 -18l307 -134q76 -29 76 -112zM401 1294v-708q0 -141 85 -220t214 -79t215 79t86 220v708q1 86 47 131t120 45t119 -45q46 -45 46 -131v-708q0 -285 -176 -452t-457 -167
q-282 0 -456 167t-174 452v708q0 86 45 131t121 45t120 -45t45 -131z" />
    <glyph glyph-name="Uacute" unicode="&#xda;" horiz-adv-x="1402" 
d="M469 1696q0 84 76 112l307 134q41 18 92 18t88 -41t37 -100q0 -84 -76 -113l-307 -133q-41 -19 -92 -19t-88 41t-37 101zM401 1294v-708q0 -141 85 -220t214 -79t215 79t86 220v708q1 86 47 131t120 45t119 -45q46 -45 46 -131v-708q0 -285 -176 -452t-457 -167
q-282 0 -456 167t-174 452v708q0 86 45 131t121 45t120 -45t45 -131z" />
    <glyph glyph-name="Ucircumflex" unicode="&#xdb;" horiz-adv-x="1402" 
d="M394 1554q-42 0 -75 36t-33 93t24 90q24 32 85 60l180 82q102 45 127 45t127 -45l181 -82q61 -29 85 -61q23 -32 23 -88q0 -58 -33 -94t-75 -36t-111 31l-197 90l-196 -90q-70 -31 -112 -31zM401 1294v-708q0 -141 85 -220t214 -79t215 79t86 220v708q1 86 47 131t120 45
t119 -45q46 -45 46 -131v-708q0 -285 -176 -452t-457 -167q-282 0 -456 167t-174 452v708q0 86 45 131t121 45t120 -45t45 -131z" />
    <glyph glyph-name="Udieresis" unicode="&#xdc;" horiz-adv-x="1402" 
d="M465 1917q66 0 113 -47t47 -113q0 -67 -47 -113t-113 -46t-113 46q-47 48 -47 114t47 112q47 47 113 47zM940 1917q66 0 113 -47t47 -113q0 -67 -47 -113t-113 -46t-113 46q-47 48 -47 114t47 112q47 47 113 47zM401 1294v-708q0 -141 85 -220t214 -79t215 79t86 220v708
q1 86 47 131t120 45t119 -45q46 -45 46 -131v-708q0 -285 -176 -452t-457 -167q-282 0 -456 167t-174 452v708q0 86 45 131t121 45t120 -45t45 -131z" />
    <glyph glyph-name="Yacute" unicode="&#xdd;" horiz-adv-x="1101" 
d="M317 1696q0 84 76 112l307 134q41 18 92 18q50 0 88 -41t38 -100q0 -84 -76 -113l-307 -133q-41 -19 -92 -19t-89 41q-37 41 -37 101zM385 164v520l-287 385q-113 158 -125 191t-12 63q0 66 50 107q51 40 109 40t94 -20t51 -38t40 -54l246 -350l246 350q25 35 40 53
q15 19 51 39t94 20t109 -40q50 -40 50 -98q0 -56 -24 -97t-113 -166l-287 -385v-520q0 -86 -45 -131t-121 -45t-121 45t-45 131z" />
    <glyph glyph-name="Thorn" unicode="&#xde;" horiz-adv-x="1175" 
d="M80 164v1130q0 88 45 132t121 44t121 -44t45 -132v-53h241q207 0 353 -130t147 -356q0 -225 -130 -363t-359 -138h-252v-90q0 -88 -45 -132t-121 -44t-121 44t-45 132zM412 946v-397h178q100 0 160 58q59 57 59 147t-59 141t-160 51h-178z" />
    <glyph glyph-name="germandbls" unicode="&#xdf;" horiz-adv-x="1175" 
d="M74 154v938q0 215 138 350t347 135t337 -122t128 -316q0 -80 -35 -153t-96 -116q121 -45 182 -151t62 -244q1 -215 -145 -361t-333 -147q-82 0 -132 40t-50 112q0 133 164 157q70 10 117 74t47 135q0 172 -168 203q-92 16 -133 50t-41 100q0 112 85 141q36 12 72 23
q85 26 85 133q0 59 -39 97t-103 38q-170 0 -170 -242v-874q0 -70 -45 -118t-115 -48q-71 0 -115 48t-44 118z" />
    <glyph glyph-name="agrave" unicode="&#xe0;" horiz-adv-x="1175" 
d="M821 1356q0 -58 -37 -100t-88 -42t-92 19l-307 133q-76 29 -76 113q0 59 37 100t88 41t92 -18l307 -134q76 -29 76 -112zM569 815q-102 0 -160 -78q-59 -79 -59 -193t58 -192t161 -78q102 0 161 78q58 78 58 193t-58 193t-161 77zM1108 936v-782q0 -70 -45 -118t-115 -48
q-102 0 -149 102q-100 -123 -275 -123q-209 0 -351 168t-142 410q0 241 142 409t351 168q174 0 275 -123q47 102 149 103q70 0 115 -48t45 -118z" />
    <glyph glyph-name="aacute" unicode="&#xe1;" horiz-adv-x="1175" 
d="M354 1356q0 84 76 112l307 134q41 18 92 18t89 -41t36 -100q1 -84 -75 -113l-308 -133q-41 -19 -92 -19t-88 41t-37 101zM569 815q-102 0 -160 -78q-59 -79 -59 -193t58 -192t161 -78q102 0 161 78q58 78 58 193t-58 193t-161 77zM1108 936v-782q0 -70 -45 -118t-115 -48
q-102 0 -149 102q-100 -123 -275 -123q-209 0 -351 168t-142 410q0 241 142 409t351 168q174 0 275 -123q47 102 149 103q70 0 115 -48t45 -118z" />
    <glyph glyph-name="acircumflex" unicode="&#xe2;" horiz-adv-x="1175" 
d="M280 1214q-42 0 -75 36t-33 93t24 89t85 61l180 82q102 45 127 45t127 -45l180 -82q61 -29 85 -61t24 -88q0 -58 -33 -94t-75 -36t-112 31l-196 90l-197 -90q-69 -31 -111 -31zM569 815q-102 0 -160 -78q-59 -79 -59 -193t58 -192t161 -78q102 0 161 78q58 78 58 193
t-58 193t-161 77zM1108 936v-782q0 -70 -45 -118t-115 -48q-102 0 -149 102q-100 -123 -275 -123q-209 0 -351 168t-142 410q0 241 142 409t351 168q174 0 275 -123q47 102 149 103q70 0 115 -48t45 -118z" />
    <glyph glyph-name="atilde" unicode="&#xe3;" horiz-adv-x="1175" 
d="M152 1360q0 70 62 140t143 69q81 0 210 -47q123 -49 161 -49t88 48t97 48t79 -38q32 -37 32 -107t-62 -140t-146 -70t-208 48q-122 48 -160 49q-38 0 -88 -48q-50 -49 -98 -49q-47 0 -79 38q-31 38 -31 108zM569 815q-102 0 -160 -78q-59 -79 -59 -193t58 -192t161 -78
q102 0 161 78q58 78 58 193t-58 193t-161 77zM1108 936v-782q0 -70 -45 -118t-115 -48q-102 0 -149 102q-100 -123 -275 -123q-209 0 -351 168t-142 410q0 241 142 409t351 168q174 0 275 -123q47 102 149 103q70 0 115 -48t45 -118z" />
    <glyph glyph-name="adieresis" unicode="&#xe4;" horiz-adv-x="1175" 
d="M350 1577q66 0 113 -47t47 -113q0 -67 -47 -113t-113 -46t-112 46q-46 48 -48 114q0 66 47 112q47 47 113 47zM825 1577q66 0 113 -47t47 -113q0 -67 -47 -113t-113 -46q-67 0 -113 46q-46 48 -46 114t46 112q46 47 113 47zM569 815q-102 0 -160 -78q-59 -79 -59 -193
t58 -192t161 -78q102 0 161 78q58 78 58 193t-58 193t-161 77zM1108 936v-782q0 -70 -45 -118t-115 -48q-102 0 -149 102q-100 -123 -275 -123q-209 0 -351 168t-142 410q0 241 142 409t351 168q174 0 275 -123q47 102 149 103q70 0 115 -48t45 -118z" />
    <glyph glyph-name="aring" unicode="&#xe5;" horiz-adv-x="1175" 
d="M496 1366q0 -36 28 -64t64 -28t64 28t28 64t-28 65q-28 27 -64 27t-65 -27q-27 -28 -27 -65zM385 1366q0 84 59 143q60 59 144 59t143 -58q59 -60 59 -144t-58 -143q-60 -59 -144 -59t-144 58q-60 60 -59 144zM569 815q-102 0 -160 -78q-59 -79 -59 -193t58 -192t161 -78
q102 0 161 78q58 78 58 193t-58 193t-161 77zM1108 936v-782q0 -70 -45 -118t-115 -48q-102 0 -149 102q-100 -123 -275 -123q-209 0 -351 168t-142 410q0 241 142 409t351 168q174 0 275 -123q47 102 149 103q70 0 115 -48t45 -118z" />
    <glyph glyph-name="ae" unicode="&#xe6;" horiz-adv-x="1896" 
d="M569 815q-102 0 -160 -78q-59 -79 -59 -193t58 -192t161 -78q102 0 161 78q58 78 58 193t-58 193t-161 77zM1710 440h-602q0 -62 71 -120t185 -58t220 50q105 50 146 50t80 -38t39 -99q-1 -111 -155 -185t-344 -73q-190 0 -299 74q-39 -74 -119 -74q-133 0 -133 123h-4
q-94 -123 -271 -123q-209 0 -351 168t-142 410q0 241 142 409t351 168q176 0 271 -123h4q0 123 137 123q84 0 119 -73q100 74 293 73q227 0 372 -162t146 -380q0 -80 -37 -110t-119 -30zM1108 659h438q0 63 -62 128t-156 65t-158 -65q-62 -65 -62 -128z" />
    <glyph glyph-name="ccedilla" unicode="&#xe7;" horiz-adv-x="948" 
d="M567 -104q72 0 118 -44t46 -126t-82 -132t-174 -49q-205 0 -205 97q0 26 16 48q27 37 97 6q35 -15 61 -15t45 18q20 18 21 47q0 29 -20 43t-44 14h-40q-18 1 -32 15t-16 40q0 26 56 91l26 33q-186 46 -298 200t-111 363q1 245 151 411t387 166q131 0 217 -32t124 -76
t38 -104q0 -62 -38 -105t-83 -43t-108 26t-131 27q-117 0 -177 -77q-61 -76 -61 -192t58 -194t150 -78q91 0 169 28t90 28q53 0 92 -44t39 -108t-70 -116q-120 -90 -305 -95l-55 -73q16 2 49 2z" />
    <glyph glyph-name="egrave" unicode="&#xe8;" 
d="M803 1356q0 -58 -37 -100t-88 -42t-92 19l-307 133q-76 29 -76 113q0 59 37 100t88 41t92 -18l307 -134q76 -29 76 -112zM375 659h413q0 61 -60 127t-146 66t-146 -66t-61 -127zM952 440h-577q0 -66 59 -122t173 -56t219 50t146 50t81 -38q39 -39 39 -99
q0 -111 -155 -185t-347 -73q-252 0 -406 165t-154 407q0 243 160 413t394 170t379 -161q145 -162 145 -381q0 -80 -37 -110t-119 -30z" />
    <glyph glyph-name="eacute" unicode="&#xe9;" 
d="M336 1356q0 84 76 112l307 134q41 18 92 18t88 -41t37 -100q0 -84 -76 -113l-307 -133q-41 -19 -92 -19t-88 41t-37 101zM375 659h413q0 61 -60 127t-146 66t-146 -66t-61 -127zM952 440h-577q0 -66 59 -122t173 -56t219 50t146 50t81 -38q39 -39 39 -99
q0 -111 -155 -185t-347 -73q-252 0 -406 165t-154 407q0 243 160 413t394 170t379 -161q145 -162 145 -381q0 -80 -37 -110t-119 -30z" />
    <glyph glyph-name="ecircumflex" unicode="&#xea;" 
d="M261 1214q-42 0 -75 36q-32 36 -32 93t23 90q24 32 85 60l180 82q102 45 127 45t127 -45l181 -82q61 -29 85 -61t24 -88q0 -58 -34 -94q-32 -36 -74 -36t-112 31l-197 90l-196 -90q-70 -31 -112 -31zM375 659h413q0 61 -60 127t-146 66t-146 -66t-61 -127zM952 440h-577
q0 -66 59 -122t173 -56t219 50t146 50t81 -38q39 -39 39 -99q0 -111 -155 -185t-347 -73q-252 0 -406 165t-154 407q0 243 160 413t394 170t379 -161q145 -162 145 -381q0 -80 -37 -110t-119 -30z" />
    <glyph glyph-name="edieresis" unicode="&#xeb;" 
d="M332 1577q66 0 112 -47t48 -113q0 -67 -48 -113t-112 -46q-66 0 -113 46q-47 48 -47 114t47 112q47 47 113 47zM807 1577q66 0 113 -47t47 -113q0 -67 -47 -113t-113 -46t-113 46q-47 48 -47 114t47 112q47 47 113 47zM375 659h413q0 61 -60 127t-146 66t-146 -66
t-61 -127zM952 440h-577q0 -66 59 -122t173 -56t219 50t146 50t81 -38q39 -39 39 -99q0 -111 -155 -185t-347 -73q-252 0 -406 165t-154 407q0 243 160 413t394 170t379 -161q145 -162 145 -381q0 -80 -37 -110t-119 -30z" />
    <glyph glyph-name="igrave" unicode="&#xec;" horiz-adv-x="454" 
d="M461 1356q0 -58 -37 -100t-88 -42t-92 19l-307 133q-76 29 -76 113q0 59 37 100t88 41t92 -18l307 -134q76 -29 76 -112zM68 154v782q0 70 45 118t115 48t114 -48q45 -48 45 -118v-782q0 -70 -45 -118t-115 -48q-71 0 -115 48t-44 118z" />
    <glyph glyph-name="iacute" unicode="&#xed;" horiz-adv-x="454" 
d="M-6 1356q0 84 76 112l307 134q41 18 92 18t88 -41t37 -100q0 -84 -76 -113l-307 -133q-41 -19 -92 -19t-88 41t-37 101zM68 154v782q0 70 45 118t115 48t114 -48q45 -48 45 -118v-782q0 -70 -45 -118t-115 -48q-71 0 -115 48t-44 118z" />
    <glyph glyph-name="icircumflex" unicode="&#xee;" horiz-adv-x="454" 
d="M-81 1214q-42 0 -75 36q-32 36 -32 93t23 90q24 32 85 60l180 82q102 45 127 45t127 -45l181 -82q61 -29 85 -61t24 -88q0 -58 -34 -94q-32 -36 -74 -36t-112 31l-197 90l-196 -90q-70 -31 -112 -31zM68 154v782q0 70 45 118t115 48t114 -48q45 -48 45 -118v-782
q0 -70 -45 -118t-115 -48q-71 0 -115 48t-44 118z" />
    <glyph glyph-name="idieresis" unicode="&#xef;" horiz-adv-x="454" 
d="M-10 1577q66 0 112 -47t48 -113q0 -67 -48 -113t-112 -46q-66 0 -113 46q-47 48 -47 114t47 112q47 47 113 47zM465 1577q66 0 113 -47t47 -113q0 -67 -47 -113t-113 -46t-113 46q-47 48 -47 114t47 112q47 47 113 47zM68 154v782q0 70 45 118t115 48t114 -48
q45 -48 45 -118v-782q0 -70 -45 -118t-115 -48q-71 0 -115 48t-44 118z" />
    <glyph glyph-name="eth" unicode="&#xf0;" 
d="M569 750q-94 0 -156 -72q-63 -72 -63 -166t62 -166t157 -72q94 0 157 72q62 72 62 166t-62 166q-63 72 -157 72zM569 -33q-233 -1 -385 153t-153 393q0 239 140 391t361 153q154 0 213 -66l5 4q-34 65 -90 133t-115 97l-189 -92q-66 -33 -100 -33t-53 26q-21 26 -21 58
q0 31 16 47t54 35l125 61q-86 47 -121 77t-35 77t47 82t125 34q160 0 312 -112l167 82q35 18 67 18q33 1 55 -23t22 -64t-34 -59q-11 -7 -34 -18l-104 -51q264 -229 264 -760q0 -269 -127 -450q-63 -90 -169 -142t-243 -51z" />
    <glyph glyph-name="ntilde" unicode="&#xf1;" 
d="M133 1360q1 70 63 140t143 69q81 0 210 -47q123 -49 161 -49t88 48t97 48t79 -38q32 -37 32 -107t-62 -140t-147 -70q-84 0 -207 48t-161 49q-38 0 -88 -48q-50 -49 -97 -49t-79 38t-32 108zM74 154v782q0 70 45 118t114 48q115 0 160 -103q79 123 265 123t296 -94
t111 -283v-591q0 -70 -45 -118t-115 -48q-71 0 -115 48t-45 118v505q0 85 -47 139t-129 54t-129 -54t-47 -139v-505q0 -70 -45 -118t-115 -48q-71 0 -115 48t-44 118z" />
    <glyph glyph-name="ograve" unicode="&#xf2;" 
d="M803 1356q0 -58 -37 -100t-88 -42t-92 19l-307 133q-76 29 -76 113q0 59 37 100t88 41t92 -18l307 -134q76 -29 76 -112zM569 815q-102 0 -160 -78q-59 -79 -59 -193t58 -192t161 -78q102 0 161 78q58 78 58 193t-58 193t-161 77zM569 1122q239 0 389 -166t150 -412
t-151 -411q-151 -166 -389 -166t-388 166t-149 412q0 245 150 411t388 166z" />
    <glyph glyph-name="oacute" unicode="&#xf3;" 
d="M336 1356q0 84 76 112l307 134q41 18 92 18t88 -41t37 -100q0 -84 -76 -113l-307 -133q-41 -19 -92 -19t-88 41t-37 101zM569 815q-102 0 -160 -78q-59 -79 -59 -193t58 -192t161 -78q102 0 161 78q58 78 58 193t-58 193t-161 77zM569 1122q239 0 389 -166t150 -412
t-151 -411q-151 -166 -389 -166t-388 166t-149 412q0 245 150 411t388 166z" />
    <glyph glyph-name="ocircumflex" unicode="&#xf4;" 
d="M261 1214q-42 0 -75 36q-32 36 -32 93t23 90q24 32 85 60l180 82q102 45 127 45t127 -45l181 -82q61 -29 85 -61t24 -88q0 -58 -34 -94q-32 -36 -74 -36t-112 31l-197 90l-196 -90q-70 -31 -112 -31zM569 815q-102 0 -160 -78q-59 -79 -59 -193t58 -192t161 -78
q102 0 161 78q58 78 58 193t-58 193t-161 77zM569 1122q239 0 389 -166t150 -412t-151 -411q-151 -166 -389 -166t-388 166t-149 412q0 245 150 411t388 166z" />
    <glyph glyph-name="otilde" unicode="&#xf5;" 
d="M133 1360q1 70 63 140t143 69q81 0 210 -47q123 -49 161 -49t88 48t97 48t79 -38q32 -37 32 -107t-62 -140t-147 -70q-84 0 -207 48t-161 49q-38 0 -88 -48q-50 -49 -97 -49t-79 38t-32 108zM569 815q-102 0 -160 -78q-59 -79 -59 -193t58 -192t161 -78q102 0 161 78
q58 78 58 193t-58 193t-161 77zM569 1122q239 0 389 -166t150 -412t-151 -411q-151 -166 -389 -166t-388 166t-149 412q0 245 150 411t388 166z" />
    <glyph glyph-name="odieresis" unicode="&#xf6;" 
d="M332 1577q66 0 112 -47t48 -113q0 -67 -48 -113t-112 -46q-66 0 -113 46q-47 48 -47 114t47 112q47 47 113 47zM807 1577q66 0 113 -47t47 -113q0 -67 -47 -113t-113 -46t-113 46q-47 48 -47 114t47 112q47 47 113 47zM569 815q-102 0 -160 -78q-59 -79 -59 -193t58 -192
t161 -78q102 0 161 78q58 78 58 193t-58 193t-161 77zM569 1122q239 0 389 -166t150 -412t-151 -411q-151 -166 -389 -166t-388 166t-149 412q0 245 150 411t388 166z" />
    <glyph glyph-name="divide" unicode="&#xf7;" horiz-adv-x="1228" 
d="M614 336q78 0 134 -57t57 -133q0 -76 -56 -134q-57 -57 -135 -57t-134 57t-56 133q0 75 56 133t134 58zM614 1204q78 0 134 -57t57 -133q0 -76 -56 -133q-57 -57 -135 -57t-134 56q-56 58 -56 134t56 133t134 57zM178 715h873q67 0 105 -36t38 -99q0 -64 -39 -100
t-104 -36h-873q-66 0 -104 36t-39 100q1 64 39 99q38 36 104 36z" />
    <glyph glyph-name="oslash" unicode="&#xf8;" 
d="M31 545q1 245 151 411t387 166q195 0 334 -114l74 75q41 43 59 57t46 13q28 1 50 -21t22 -58t-32 -66l-112 -119q98 -150 98 -344q0 -246 -151 -412t-388 -166q-193 0 -333 115l-74 -76q-42 -43 -60 -56t-46 -13q-28 -1 -50 21t-21 58q0 36 31 66l115 119
q-100 147 -100 344zM569 274q102 0 161 78q58 78 58 193q0 59 -14 100l-319 -336q51 -35 114 -35zM569 815q-102 0 -160 -78t-59 -192q1 -58 15 -103l321 336q-49 37 -117 37z" />
    <glyph glyph-name="ugrave" unicode="&#xf9;" 
d="M803 1356q0 -58 -37 -100t-88 -42t-92 19l-307 133q-76 29 -76 113q0 59 37 100t88 41t92 -18l307 -134q76 -29 76 -112zM1065 936v-543q0 -209 -140 -317q-139 -108 -355 -109q-216 0 -356 109t-140 317v543q0 70 45 118t115 48t114 -48q45 -48 45 -118v-498
q0 -84 53 -130t123 -46t123 46t53 130v498q-1 70 45 118t116 48t114 -48q45 -48 45 -118z" />
    <glyph glyph-name="uacute" unicode="&#xfa;" 
d="M336 1356q0 84 76 112l307 134q41 18 92 18t88 -41t37 -100q0 -84 -76 -113l-307 -133q-41 -19 -92 -19t-88 41t-37 101zM1065 936v-543q0 -209 -140 -317q-139 -108 -355 -109q-216 0 -356 109t-140 317v543q0 70 45 118t115 48t114 -48q45 -48 45 -118v-498
q0 -84 53 -130t123 -46t123 46t53 130v498q-1 70 45 118t116 48t114 -48q45 -48 45 -118z" />
    <glyph glyph-name="ucircumflex" unicode="&#xfb;" 
d="M261 1214q-42 0 -75 36q-32 36 -32 93t23 90q24 32 85 60l180 82q102 45 127 45t127 -45l181 -82q61 -29 85 -61t24 -88q0 -58 -34 -94q-32 -36 -74 -36t-112 31l-197 90l-196 -90q-70 -31 -112 -31zM1065 936v-543q0 -209 -140 -317q-139 -108 -355 -109
q-216 0 -356 109t-140 317v543q0 70 45 118t115 48t114 -48q45 -48 45 -118v-498q0 -84 53 -130t123 -46t123 46t53 130v498q-1 70 45 118t116 48t114 -48q45 -48 45 -118z" />
    <glyph glyph-name="udieresis" unicode="&#xfc;" 
d="M332 1577q66 0 112 -47t48 -113q0 -67 -48 -113t-112 -46q-66 0 -113 46q-47 48 -47 114t47 112q47 47 113 47zM807 1577q66 0 113 -47t47 -113q0 -67 -47 -113t-113 -46t-113 46q-47 48 -47 114t47 112q47 47 113 47zM1065 936v-543q0 -209 -140 -317
q-139 -108 -355 -109q-216 0 -356 109t-140 317v543q0 70 45 118t115 48t114 -48q45 -48 45 -118v-498q0 -84 53 -130t123 -46t123 46t53 130v498q-1 70 45 118t116 48t114 -48q45 -48 45 -118z" />
    <glyph glyph-name="yacute" unicode="&#xfd;" horiz-adv-x="1024" 
d="M754 1620q50 0 88 -41t37 -100q0 -84 -76 -113l-307 -133q-41 -19 -92 -19t-89 41q-37 41 -36 101q0 84 75 112l308 134q42 18 92 18zM0 966q0 54 46 95t110 41q117 0 163 -121l189 -487l178 434q35 86 74 130q38 44 106 44t113 -44t45 -106t-39 -151l-473 -1104
q-52 -124 -106 -141q-29 -10 -68 -11q-78 0 -118 47q-40 48 -40 100t53 173l107 239l-272 650q-68 158 -68 212z" />
    <glyph glyph-name="thorn" unicode="&#xfe;" horiz-adv-x="1175" 
d="M606 274q102 0 161 78q58 78 58 193t-58 193q-59 78 -161 77q-102 0 -160 -78q-58 -79 -59 -193q1 -114 59 -192t160 -78zM68 -295v1712q0 76 42 118t118 42t117 -42q42 -42 42 -118v-385q111 90 264 90q209 0 351 -168t142 -410t-142 -409q-142 -168 -351 -168
q-154 0 -264 90v-352q0 -76 -42 -118t-118 -42q-75 0 -117 42t-42 118z" />
    <glyph glyph-name="ydieresis" unicode="&#xff;" horiz-adv-x="1024" 
d="M274 1577q66 0 113 -47t47 -113q0 -67 -47 -113t-113 -46t-112 46q-46 48 -47 114q1 66 47 112q46 47 112 47zM750 1577q66 0 112 -47t47 -113q0 -67 -47 -113q-46 -46 -112 -46t-113 46q-47 48 -47 114t47 112q47 47 113 47zM0 966q0 54 46 95t110 41q117 0 163 -121
l189 -487l178 434q35 86 74 130q38 44 106 44t113 -44t45 -106t-39 -151l-473 -1104q-52 -124 -106 -141q-29 -10 -68 -11q-78 0 -118 47q-40 48 -40 100t53 173l107 239l-272 650q-68 158 -68 212z" />
    <glyph glyph-name="dotlessi" unicode="&#x131;" horiz-adv-x="454" 
d="M68 154v782q0 70 45 118t115 48t114 -48q45 -48 45 -118v-782q0 -70 -45 -118t-115 -48q-71 0 -115 48t-44 118z" />
    <glyph glyph-name="Lslash" unicode="&#x141;" horiz-adv-x="909" 
d="M80 166v311q-72 -51 -108 -51t-59 31q-24 31 -24 85t86 115l105 76v561q0 86 46 131t120 45t120 -45t46 -131v-319l149 108q84 59 120 59q35 0 59 -30q24 -31 24 -85t-86 -116l-266 -194v-410h356q78 0 122 -41q44 -42 44 -112t-44 -112t-122 -42h-522q-68 0 -117 45
t-49 121z" />
    <glyph glyph-name="lslash" unicode="&#x142;" horiz-adv-x="454" 
d="M488 1169q40 1 67 -31t27 -74t-43 -85l-152 -152v-673q0 -70 -45 -118t-115 -48q-71 0 -115 48t-44 118v352l-11 -10q-95 -95 -157 -20q-26 32 -27 74q0 42 43 85l152 151v625q0 70 45 118t115 48t114 -48q45 -48 45 -118v-303q61 61 101 61z" />
    <glyph glyph-name="OE" unicode="&#x152;" horiz-adv-x="1972" 
d="M760 1184q-182 0 -272 -127t-89 -328q0 -201 89 -328t272 -127q90 0 159 38q124 68 170 248q19 79 19 167q0 181 -65 304q-36 71 -108 112q-73 41 -175 41zM1440 1151v-264h313q78 0 122 -41t44 -113q0 -73 -44 -113t-122 -40h-313v-273h350q78 0 122 -41q44 -42 44 -112
t-44 -112t-122 -42h-496q-133 0 -161 94q-152 -127 -373 -127q-328 0 -522 208t-195 554q0 346 195 554t522 208q106 -1 185 -21t110 -38t86 -60q8 25 17 41q9 17 39 31t77 14h508q78 0 122 -42t44 -112t-44 -112q-44 -41 -122 -41h-342z" />
    <glyph glyph-name="oe" unicode="&#x153;" horiz-adv-x="1896" 
d="M1108 659h438q0 63 -62 128t-156 65t-158 -65q-62 -65 -62 -128zM569 815q-102 0 -160 -78q-59 -79 -59 -193t58 -192t161 -78q102 0 161 78q58 78 58 193t-58 193t-161 77zM1710 440h-602q0 -62 71 -120t185 -58t220 50q105 50 146 50t80 -38t39 -99q-1 -111 -155 -185
t-346 -73q-240 0 -394 148q-137 -147 -380 -147q-244 0 -394 165q-150 166 -149 412q1 245 151 411t387 166q131 0 221 -34t185 -111q154 145 377 145t368 -162t146 -380q0 -80 -37 -110t-119 -30z" />
    <glyph glyph-name="Scaron" unicode="&#x160;" horiz-adv-x="1099" 
d="M860 1960q42 0 74 -36q33 -36 33 -93t-24 -89t-85 -61l-180 -82q-102 -45 -127 -45t-127 45l-180 82q-61 29 -85 61t-24 89t33 93t75 36t111 -31l197 -90l197 90q70 31 112 31zM10 205q0 74 42 126t114 52q30 0 146 -42t209 -42t136 39t43 94t-24 75q-24 21 -38 33
t-51 24q-35 12 -55 20t-138 43q-208 61 -285 158q-76 97 -74 239q0 225 150 346q151 121 360 121t319 -60t109 -159q0 -68 -41 -112q-40 -44 -98 -44t-137 28t-151 28t-113 -34q-42 -32 -42 -85t54 -81q35 -19 70 -29q33 -11 55 -18t108 -34q166 -52 273 -145
q106 -94 106 -291q0 -240 -156 -364t-403 -124t-404 107q-84 57 -84 131z" />
    <glyph glyph-name="scaron" unicode="&#x161;" horiz-adv-x="872" 
d="M744 1620q42 0 75 -36t33 -93t-24 -89t-85 -61l-180 -81q-102 -46 -127 -46t-127 46l-180 81q-61 29 -85 61t-24 89t33 93t75 36t112 -31l196 -90l197 90q69 31 111 31zM448 840q-94 0 -94 -68q0 -34 52 -60t124 -52q74 -26 148 -62t125 -104q51 -70 51 -168
q0 -164 -119 -261t-287 -97t-299 60t-131 160q0 66 38 110t88 44t145 -46q94 -46 176 -46t82 63q0 37 -31 55t-104 46q-72 28 -113 45q-135 55 -193 117t-59 196q0 133 114 242q114 108 298 108t301 -96q68 -54 68 -122t-38 -106t-80 -38t-130 40t-132 40z" />
    <glyph glyph-name="Ydieresis" unicode="&#x178;" horiz-adv-x="1101" 
d="M313 1917q66 0 113 -47t47 -113q0 -67 -47 -113t-113 -46q-67 0 -113 46q-46 48 -46 114t46 112q46 47 113 47zM788 1917q66 0 113 -47t47 -113q0 -67 -47 -113t-113 -46t-112 46q-46 48 -47 114q1 66 47 112q46 47 112 47zM385 164v520l-287 385q-113 158 -125 191
t-12 63q0 66 50 107q51 40 109 40t94 -20t51 -38t40 -54l246 -350l246 350q25 35 40 53q15 19 51 39t94 20t109 -40q50 -40 50 -98q0 -56 -24 -97t-113 -166l-287 -385v-520q0 -86 -45 -131t-121 -45t-121 45t-45 131z" />
    <glyph glyph-name="Zcaron" unicode="&#x17d;" horiz-adv-x="1099" 
d="M860 1960q42 0 74 -36q33 -36 33 -93t-24 -89t-85 -61l-180 -82q-102 -45 -127 -45t-127 45l-180 82q-61 29 -85 61t-24 89t33 93t75 36t111 -31l197 -90l197 90q70 31 112 31zM946 307q84 0 130 -42q46 -41 46 -111t-46 -112t-130 -42h-735q-233 0 -234 182q0 61 62 146
l627 835h-490q-84 0 -130 41t-46 107q0 67 46 107t130 40h713q117 0 160 -52t43 -106t-36 -114q-36 -59 -120 -172l-530 -707h540z" />
    <glyph glyph-name="zcaron" unicode="&#x17e;" horiz-adv-x="948" 
d="M784 1620q42 0 74 -36q33 -36 33 -93t-24 -89t-85 -61l-180 -81q-102 -46 -127 -46t-127 46l-180 81q-61 29 -85 61t-24 89t33 93t75 36t112 -31l196 -90l197 90q70 31 112 31zM143 0q-153 0 -153 113q0 50 49 118l410 564h-281q-168 0 -168 147t168 148h614
q82 0 116 -34t34 -75t-41 -98l-438 -588h338q168 0 167 -148q0 -147 -167 -147h-648z" />
    <glyph glyph-name="florin" unicode="&#x192;" horiz-adv-x="1290" 
d="M244 -389q-100 0 -146 37q-45 36 -45 98t28 86q29 24 103 25q74 -1 106 25t46 106l125 671h-133q-102 0 -103 93q0 92 103 92h168l61 332q33 180 105 248t241 67q109 0 165 -27q56 -26 56 -98t-32 -96t-108 -25q-74 0 -98 -16t-32 -60l-66 -325h134q102 0 102 -92
t-102 -93h-168l-131 -720q-35 -188 -113 -258t-266 -70z" />
    <glyph glyph-name="circumflex" unicode="&#x2c6;" horiz-adv-x="454" 
d="M-81 1214q-42 0 -75 36q-32 36 -32 93t23 90q24 32 85 60l180 82q102 45 127 45t127 -45l181 -82q61 -29 85 -61t24 -88q0 -58 -34 -94q-32 -36 -74 -36t-112 31l-197 90l-196 -90q-70 -31 -112 -31z" />
    <glyph glyph-name="caron" unicode="&#x2c7;" horiz-adv-x="454" 
d="M536 1620q42 0 74 -36t33 -93t-23 -89t-85 -61l-181 -81q-102 -46 -127 -46t-127 46l-180 81q-61 29 -85 61q-23 32 -23 89t32 93q33 36 75 36t112 -31l196 -90l197 90q70 31 112 31z" />
    <glyph glyph-name="uni02C9" unicode="&#x2c9;" horiz-adv-x="454" 
d="M-18 1546h491q61 0 95 -35t34 -94t-34 -94t-95 -35h-491q-59 0 -95 35q-35 35 -34 94q0 59 34 94q36 35 95 35z" />
    <glyph glyph-name="breve" unicode="&#x2d8;" horiz-adv-x="454" 
d="M227 1413q59 0 96 35q36 35 47 78t40 78q28 34 80 34t82 -36t30 -93q0 -137 -110 -227t-265 -90t-265 90t-109 227q0 57 29 94q30 35 82 35t81 -34t40 -78q11 -43 47 -78t95 -35z" />
    <glyph glyph-name="dotaccent" unicode="&#x2d9;" horiz-adv-x="454" 
d="M227 1577q66 0 113 -47t47 -113q0 -67 -47 -113t-113 -46q-67 0 -113 46q-46 48 -46 114t46 112q46 47 113 47z" />
    <glyph glyph-name="ring" unicode="&#x2da;" horiz-adv-x="454" 
d="M135 1366q0 -36 28 -64q29 -28 65 -28t64 28t28 64t-28 65q-28 27 -65 27t-65 -28t-27 -64zM25 1366q0 84 59 143t143 59q83 0 143 -58q60 -60 60 -144t-59 -143t-143 -59t-144 58q-59 60 -59 144z" />
    <glyph glyph-name="ogonek" unicode="&#x2db;" horiz-adv-x="454" 
d="M385 -336q0 -55 -63 -87q-64 -32 -156 -32t-144 46t-53 131q0 85 73 165t155 113h165q-59 -30 -115 -96t-57 -119q0 -80 72 -80l80 14q43 0 43 -55z" />
    <glyph glyph-name="tilde" unicode="&#x2dc;" horiz-adv-x="454" 
d="M-209 1360q1 70 63 140t143 69q81 0 210 -47q123 -49 161 -49t88 48t97 48t79 -38q32 -37 32 -107t-62 -140t-147 -70q-84 0 -207 48t-161 49q-38 0 -88 -48q-50 -49 -97 -49t-79 38t-32 108z" />
    <glyph glyph-name="hungarumlaut" unicode="&#x2dd;" horiz-adv-x="454" 
d="M328 1356q0 84 75 112l308 134q41 18 92 18t88 -41t37 -100q0 -84 -76 -113l-307 -133q-41 -19 -92 -19t-88 41t-37 101zM-354 1356q0 84 75 112l308 134q41 18 92 18t88 -41t37 -100q0 -84 -76 -113l-307 -133q-41 -19 -92 -19t-88 41t-37 101z" />
    <glyph glyph-name="uni03A9" unicode="&#x3a9;" horiz-adv-x="1638" 
d="M389 246v6q-117 96 -197 242t-79 327q1 279 199 475t511 195q162 0 298 -58q246 -105 354 -365q47 -116 47 -237q0 -186 -80 -333t-203 -246v-6h313v-246h-630v184q279 166 278 584q0 199 -101 336t-275 137t-280 -135q-108 -135 -108 -346t79 -362t200 -214v-184h-633
v246h307z" />
    <glyph glyph-name="uni03BC" unicode="&#x3bc;" 
d="M74 -289v1225q0 70 45 118t115 48t114 -48q45 -48 45 -118v-494q0 -84 53 -130t129 -46t123 54t47 139v477q-1 70 45 118t116 48t114 -48q45 -48 45 -118v-782q0 -70 -45 -118t-115 -48q-102 0 -149 102q-84 -102 -196 -102t-163 100h-4v-377q0 -70 -45 -118t-115 -48
q-71 0 -115 48t-44 118z" />
    <glyph glyph-name="pi" unicode="&#x3c0;" horiz-adv-x="1390" 
d="M1182 848v-518q0 -207 28 -330h-309q-39 61 -39 313v535h-291q-6 -193 -45 -450t-92 -398h-309q53 176 92 427t41 421q-152 0 -219 -21l-33 203q90 74 383 74h973l-25 -256h-155z" />
    <glyph glyph-name="uni2010" unicode="&#x2010;" horiz-adv-x="872" 
d="M195 707h483q63 0 99 -37q36 -36 36 -98t-36 -99t-99 -37h-483q-63 0 -100 37q-36 37 -36 98t36 99q37 37 100 37z" />
    <glyph glyph-name="endash" unicode="&#x2013;" horiz-adv-x="1024" 
d="M135 707h754q63 0 99 -37q36 -36 36 -98t-36 -99t-99 -37h-754q-63 0 -99 37t-36 98t36 99t99 37z" />
    <glyph glyph-name="emdash" unicode="&#x2014;" horiz-adv-x="2048" 
d="M0 707h2048q63 0 99 -37q36 -36 36 -98t-36 -99t-99 -37h-2048q-63 0 -99 37t-36 98t36 99t99 37z" />
    <glyph glyph-name="quoteleft" unicode="&#x2018;" horiz-adv-x="530" 
d="M346 1470q68 0 112 -38t44 -90t-31 -109l-168 -301q-53 -94 -145 -94q-68 0 -112 39t-44 90t31 108l168 301q53 94 145 94z" />
    <glyph glyph-name="quoteright" unicode="&#x2019;" horiz-adv-x="530" 
d="M158 838q-68 0 -112 39t-44 90t31 108l168 301q53 94 145 94q68 0 112 -38t44 -90t-31 -109l-168 -301q-53 -94 -145 -94z" />
    <glyph glyph-name="quotesinglbase" unicode="&#x201a;" horiz-adv-x="530" 
d="M502 194q0 -52 -31 -108l-168 -301q-53 -94 -145 -94q-68 0 -112 39t-44 90t31 108l168 301q53 94 145 95q68 0 112 -39t44 -91z" />
    <glyph glyph-name="quotedblleft" unicode="&#x201c;" horiz-adv-x="985" 
d="M801 1470q67 0 111 -38t44 -90t-30 -109l-168 -301q-53 -94 -146 -94q-68 0 -112 39q-81 73 -13 198l168 301q53 94 146 94zM346 1470q68 0 112 -38t44 -90t-31 -109l-168 -301q-53 -94 -145 -94q-68 0 -112 39t-44 90t31 108l168 301q53 94 145 94z" />
    <glyph glyph-name="quotedblright" unicode="&#x201d;" horiz-adv-x="985" 
d="M612 838q-68 0 -112 39t-43 90q0 51 30 108l168 301q53 94 146 94q67 0 111 -38q82 -73 14 -199l-168 -301q-53 -94 -146 -94zM158 838q-68 0 -112 39t-44 90t31 108l168 301q53 94 145 94q68 0 112 -38t44 -90t-31 -109l-168 -301q-53 -94 -145 -94z" />
    <glyph glyph-name="quotedblbase" unicode="&#x201e;" horiz-adv-x="985" 
d="M502 194q0 -52 -31 -108l-168 -301q-53 -94 -145 -94q-68 0 -112 39t-44 90t31 108l168 301q53 94 145 95q68 0 112 -39t44 -91zM956 194q0 -52 -30 -108l-168 -301q-53 -94 -146 -94q-68 0 -112 39q-81 73 -13 198l168 301q53 94 146 95q67 0 111 -39t44 -91z" />
    <glyph glyph-name="dagger" unicode="&#x2020;" horiz-adv-x="1175" 
d="M446 1040v310q0 68 38 104t104 37q66 0 104 -37t37 -104v-310h275q53 0 85 -32q31 -32 31 -84q0 -51 -32 -84t-84 -33h-275v-1034q0 -68 -38 -105q-37 -37 -103 -37t-104 37t-38 105v1034h-274q-53 0 -85 33t-32 84t32 84t85 32h274z" />
    <glyph glyph-name="daggerdbl" unicode="&#x2021;" horiz-adv-x="1175" 
d="M446 1040v310q0 68 38 104t104 37q66 0 104 -37t37 -104v-310h275q53 0 85 -32q31 -32 31 -84q0 -51 -32 -84t-84 -33h-275v-492h275q53 -1 85 -33q31 -32 31 -83t-32 -84t-84 -33h-275v-309q0 -68 -38 -105q-37 -37 -103 -37t-104 37t-38 105v309h-274q-53 0 -85 33
t-32 84t32 84t85 32h274v492h-274q-53 0 -85 33t-32 84t32 84t85 32h274z" />
    <glyph glyph-name="bullet" unicode="&#x2022;" horiz-adv-x="1024" 
d="M147 729q1 152 107 258q106 107 258 107t258 -106t106 -259q0 -152 -106 -258t-258 -106t-258 106t-107 258z" />
    <glyph glyph-name="ellipsis" unicode="&#x2026;" horiz-adv-x="2048" 
d="M1528 144q0 73 53 126q53 54 125 54t125 -54t53 -126q0 -73 -53 -125t-125 -52t-125 52t-53 125zM846 144q0 73 53 126q53 54 125 54t125 -54t53 -126q0 -73 -53 -125t-125 -52t-125 52t-53 125zM164 144q0 73 53 126q53 54 125 54t125 -54t53 -126q0 -73 -53 -125
t-125 -52t-125 52t-53 125z" />
    <glyph glyph-name="perthousand" unicode="&#x2030;" horiz-adv-x="2123" 
d="M1677 295q0 -39 28 -67t67 -28q38 0 66 28t28 67t-28 67t-66 27q-38 1 -67 -27q-28 -28 -28 -67zM1444 295q0 135 96 231t232 96t231 -96q96 -96 96 -231t-96 -231t-231 -97q-135 0 -232 96q-96 97 -96 232zM25 1163q0 135 96 231t231 97q136 0 232 -96q96 -95 96 -231
t-96 -232t-232 -96t-231 96q-96 96 -96 231zM729 295q0 135 96 231q95 96 231 96t232 -96t96 -231t-96 -231t-231 -97q-135 0 -232 96q-96 97 -96 232zM258 1163q0 -39 28 -67t66 -27q38 0 67 28q27 29 27 67t-27 66q-28 28 -67 28q-38 0 -66 -28t-28 -67zM1074 1491
q46 0 81 -34t35 -80t-64 -152l-661 -1149q-31 -55 -59 -82t-73 -27q-46 0 -81 34q-34 34 -34 80t63 152l661 1149q31 55 58 82q28 27 74 27zM963 295q-1 -39 27 -67t67 -28t67 28t27 67q0 39 -28 67q-29 28 -67 27q-38 1 -66 -27t-27 -67z" />
    <glyph glyph-name="guilsinglleft" unicode="&#x2039;" horiz-adv-x="757" 
d="M147 568q0 108 82 171l172 125q59 43 105 43q46 1 76 -31q29 -32 28 -77q0 -72 -55 -109l-182 -119l182 -120q55 -35 55 -93t-28 -91q-28 -31 -76 -31q-46 0 -105 43l-172 124q-82 57 -82 165z" />
    <glyph glyph-name="guilsinglright" unicode="&#x203a;" horiz-adv-x="757" 
d="M610 574q0 -108 -82 -171l-172 -124q-59 -43 -105 -43t-75 32t-29 90t56 95l182 118l-182 121q-55 36 -55 94t28 90q65 72 180 -12l172 -125q82 -57 82 -165z" />
    <glyph glyph-name="fraction" unicode="&#x2044;" horiz-adv-x="342" 
d="M542 1491q46 0 81 -34t35 -80t-64 -152l-662 -1149q-30 -55 -58 -82t-74 -27t-81 34t-35 80t64 152l662 1149q31 55 58 82q28 27 74 27z" />
    <glyph glyph-name="Euro" unicode="&#x20ac;" horiz-adv-x="1290" 
d="M881 238q199 0 301 94v-289q-109 -74 -353 -74q-524 0 -612 502h-180l72 193h88q-2 16 -2 58t2 58h-160l72 191h104q102 518 616 518q119 1 215 -25t138 -57v-287q-96 96 -303 97q-276 0 -326 -246h553l-72 -191h-506l-2 -53l2 -63h461l-71 -193h-361q51 -233 324 -233z
" />
    <glyph glyph-name="afii61289" unicode="&#x2113;" horiz-adv-x="1202" 
d="M545 1077v-307q244 258 243 459q0 164 -112 164q-55 0 -93 -73t-38 -243zM240 1044q0 281 115 422q116 142 293 142t263 -110t86 -282q-1 -172 -115 -348q-114 -174 -337 -372l2 -76q4 -90 56 -144t134 -53t159 57t132 138l129 -133q-170 -311 -495 -312q-184 0 -286 89
q-101 89 -130 241q0 12 -2 21q-14 -10 -51 -39t-60 -43l-80 161l187 144v497z" />
    <glyph glyph-name="trademark" unicode="&#x2122;" horiz-adv-x="2048" 
d="M1442 596q-86 0 -123 109l-150 405h-4v-381q0 -73 -41 -103t-82 -30q-42 0 -82 31t-40 102v557q0 98 52 141t118 43q160 0 219 -157l133 -342l133 342q59 158 219 157q66 0 118 -43t52 -141v-557q0 -73 -41 -103t-82 -30t-82 31t-41 102v381h-4l-149 -405
q-37 -109 -123 -109zM559 1274v-545q0 -73 -41 -103t-82 -30t-82 31t-41 102v545h-129q-52 0 -76 28t-24 64t25 65q25 28 75 27h506q51 0 75 -28q23 -28 23 -64t-24 -64t-74 -28h-131z" />
    <glyph glyph-name="Omega" unicode="&#x2126;" horiz-adv-x="1638" 
d="M389 246v6q-117 96 -197 242t-79 327q1 279 199 475t511 195q162 0 298 -58q246 -105 354 -365q47 -116 47 -237q0 -186 -80 -333t-203 -246v-6h313v-246h-630v184q279 166 278 584q0 199 -101 336t-275 137t-280 -135q-108 -135 -108 -346t79 -362t200 -214v-184h-633
v246h307z" />
    <glyph glyph-name="estimated" unicode="&#x212e;" horiz-adv-x="1837" 
d="M1452 762v418q0 29 -20 49q-215 215 -514 215t-515 -221q-20 -20 -20 -54v-407q0 -14 10 -14h1051q8 0 8 14zM1763 709h-1370q-10 0 -10 -11v-413q0 -27 16 -47q215 -225 521 -226q160 0 301 67t243 185h121q-115 -135 -291 -215t-379 -80q-348 0 -596 222
q-247 221 -247 537t247 540q248 223 598 223q351 0 599 -223t247 -539v-20z" />
    <glyph glyph-name="partialdiff" unicode="&#x2202;" horiz-adv-x="1320" 
d="M594 227h4q110 0 186 120t95 267q-16 60 -83 118q-66 58 -166 58t-170 -94t-71 -210t57 -188q58 -71 148 -71zM584 1651q262 0 448 -216t186 -599t-176 -622q-178 -239 -479 -239q-159 0 -273 83t-164 195t-50 228q0 246 139 399t354 152q123 0 211 -57t125 -117h4v62
q0 196 -104 338q-103 142 -273 142t-303 -97l-90 221q182 127 445 127z" />
    <glyph glyph-name="uni2206" unicode="&#x2206;" horiz-adv-x="1505" 
d="M387 246h713l-234 590q-14 47 -59 180t-59 180h-9q-10 -37 -52 -160t-56 -170zM53 0v172l514 1327h383l500 -1325v-174h-1397z" />
    <glyph glyph-name="product" unicode="&#x220f;" horiz-adv-x="1642" 
d="M1593 1194h-231v-1397h-311v1397h-459v-1397h-311v1397h-232v272h1544v-272z" />
    <glyph glyph-name="summation" unicode="&#x2211;" horiz-adv-x="1277" 
d="M1239 -203h-1190v189l533 645l-512 624v211h1128v-260h-698v-8l438 -522l-487 -594v-6h788v-279z" />
    <glyph glyph-name="minus" unicode="&#x2212;" horiz-adv-x="1228" 
d="M178 715h873q67 0 105 -36t38 -99q0 -64 -39 -100t-104 -36h-873q-66 0 -104 36t-39 100q1 64 39 99q38 36 104 36z" />
    <glyph glyph-name="uni2215" unicode="&#x2215;" horiz-adv-x="342" 
d="M542 1491q46 0 81 -34t35 -80t-64 -152l-662 -1149q-30 -55 -58 -82t-74 -27t-81 34t-35 80t64 152l662 1149q31 55 58 82q28 27 74 27z" />
    <glyph glyph-name="uni2219" unicode="&#x2219;" horiz-adv-x="569" 
d="M285 391q-71 0 -125 52t-54 125t54 126q54 54 125 54q72 0 125 -54t53 -126q0 -73 -53 -125t-125 -52z" />
    <glyph glyph-name="radical" unicode="&#x221a;" horiz-adv-x="1351" 
d="M1386 1759l-518 -2056h-247l-338 907l-166 -65l-51 164l401 163l231 -661l24 -93t23 -89l5 -2q20 123 36 198l381 1534h219z" />
    <glyph glyph-name="infinity" unicode="&#x221e;" horiz-adv-x="1701" 
d="M1237 813h-2q-62 0 -114 -33t-112 -104q-59 -70 -63 -74q96 -125 160 -171t143 -46q80 0 130 66q51 65 51 151t-54 148t-139 63zM471 385h4q55 0 111 34q56 33 91 69q34 36 85 98q-72 102 -119 149t-88 63t-90 15q-88 0 -141 -61q-54 -62 -54 -154t58 -152t143 -61z
M1599 608v-4q0 -174 -106 -278t-250 -105q-209 0 -391 244q-96 -121 -188 -182t-223 -61t-235 104q-104 106 -104 271t106 270t263 106q209 0 391 -236q14 14 38 42q24 27 46 51t35 33q12 9 35 29t40 28l43 21q64 32 154 32q147 1 247 -101t99 -264z" />
    <glyph glyph-name="integral" unicode="&#x222b;" horiz-adv-x="882" 
d="M561 1206q-1 -166 17 -481t18 -512q0 -276 -78 -416q-88 -168 -312 -168q-104 0 -169 35l37 213q49 -23 105 -23t91 44q60 78 60 296t-18 542t-17 504q0 181 33 294t106 186q94 100 271 101q76 0 139 -25l-31 -205q-37 17 -97 17t-98 -56q-57 -74 -57 -346z" />
    <glyph glyph-name="approxequal" unicode="&#x2248;" horiz-adv-x="1232" 
d="M385 389q-31 -1 -73 -25t-66 -52t-60 -79l-108 107q51 96 142 158t196 63q105 0 265 -98l39 -24q61 -33 118 -33t102 36t100 117l109 -104q-129 -223 -311 -224q-64 -1 -116 19t-146 74t-128 60q-32 6 -63 5zM412 803q-94 0 -165 -77q-24 -26 -61 -77l-108 105
q51 96 142 159q92 63 192 63t222 -72q122 -73 167 -79q18 -4 37 -4q59 0 105 38t97 116l109 -105q-59 -104 -140 -164t-158 -60t-129 18q-52 20 -152 80t-158 59z" />
    <glyph glyph-name="notequal" unicode="&#x2260;" horiz-adv-x="1232" 
d="M1126 913v-174h-364l-127 -286h491v-174h-561l-110 -250l-140 59l84 191h-295v174h367l125 286h-492v174h562l108 244l139 -59l-82 -185h295z" />
    <glyph glyph-name="lessequal" unicode="&#x2264;" horiz-adv-x="1232" 
d="M1128 -35h-1022v178h1022v-178zM1122 221l-1007 477v191l1007 477v-199l-829 -370v-4l829 -373v-199z" />
    <glyph glyph-name="greaterequal" unicode="&#x2265;" horiz-adv-x="1232" 
d="M1122 -35h-1013v178h1013v-178zM119 1366l1007 -479v-189l-1007 -477v199l827 373v4l-827 370v199z" />
    <glyph glyph-name="lozenge" unicode="&#x25ca;" horiz-adv-x="1351" 
d="M971 725l-252 492q-33 78 -39 116h-8q-18 -66 -41 -116l-252 -480l254 -497q16 -35 39 -111h8q23 78 39 109zM1245 731l-452 -837h-246l-441 837l451 842h246z" />
    <glyph glyph-name="fi" unicode="&#xfb01;" 
d="M156 154v641h-37q-168 0 -168 147t168 148h37v143q0 147 93 245t238 99q213 0 213 -147t-151 -148q-39 0 -56 -22t-18 -82v-88h88q168 0 168 -148t-168 -147h-88v-641q0 -70 -45 -118t-115 -48q-71 0 -115 48t-44 118zM721 1386q0 80 56 136t134 55q79 0 135 -55
q56 -56 56 -136t-56 -135t-134 -55t-135 55q-56 55 -56 135zM752 154v782q0 70 45 118t115 48t114 -48q45 -48 45 -118v-782q0 -70 -45 -118t-115 -48q-71 0 -115 48t-44 118z" />
    <glyph glyph-name="fl" unicode="&#xfb02;" 
d="M156 154v641h-37q-168 0 -168 147t168 148h37v143q0 147 93 245t238 99q213 0 213 -147t-151 -148q-39 0 -56 -22t-18 -82v-88h88q168 0 168 -148t-168 -147h-88v-641q0 -70 -45 -118t-115 -48q-71 0 -115 48t-44 118zM752 154v1257q0 70 45 118t115 48t114 -48
q45 -48 45 -118v-1257q0 -70 -45 -118t-115 -48q-71 0 -115 48t-44 118z" />
    <glyph glyph-name="a.superior" horiz-adv-x="761" 
d="M244 1145q0 -59 38 -103t100 -45q62 1 99 45t37 104t-37 104t-99 44t-100 -45t-38 -104zM739 1401v-510q-1 -41 -29 -66t-90 -25t-88 72q-70 -72 -180 -71q-141 0 -235 100q-94 99 -94 245t94 246t222 99q128 0 193 -72q27 72 97 72q110 0 110 -90z" />
    <glyph glyph-name="o.superior" horiz-adv-x="737" 
d="M233 1145q0 -59 37 -103q36 -44 98 -45q62 0 99 44q37 43 37 103t-37 105t-98 45t-99 -45t-37 -104zM368 1491q159 -1 258 -99t99 -244t-100 -246t-258 -101q-158 0 -256 99q-99 98 -99 246t98 246t258 99z" />
    <glyph glyph-name="one.superior" horiz-adv-x="516" 
d="M147 700v582h-71q-47 0 -73 29t-26 69t26 70q26 29 73 29h188q49 0 83 -28t34 -85v-666q0 -49 -32 -83q-32 -33 -86 -33t-85 34t-31 82z" />
    <glyph glyph-name="two.superior" horiz-adv-x="739" 
d="M608 793q47 0 73 -29t26 -70q0 -42 -26 -70t-73 -28h-450q-49 0 -87 25t-38 63t66 111q67 71 145 137t144 144t65 122q0 44 -29 64t-68 20q-38 0 -62 -27t-30 -57t-33 -58q-27 -26 -77 -26t-77 29q-28 29 -28 65q0 117 92 200q91 83 229 83t227 -74t89 -192
q0 -61 -36 -129t-70 -107t-107 -107q-72 -68 -90 -89h225z" />
    <glyph glyph-name="three.superior" horiz-adv-x="763" 
d="M264 1056q0 46 30 68t64 26q34 3 65 21q30 18 30 58q0 53 -84 53q-51 0 -103 -44t-97 -44t-69 28t-24 64q0 94 96 150t213 55q117 0 203 -66q86 -67 86 -175t-115 -173q78 -31 119 -90t41 -133q0 -121 -96 -196q-95 -74 -233 -74t-242 70q-103 71 -103 165q0 41 28 68
q29 27 69 27q76 -1 110 -61q35 -60 131 -60q41 1 72 29t30 63q0 83 -109 86q-42 0 -77 20q-35 19 -35 65z" />
    </font>
</defs>
</svg>
