<?xml version="1.0" standalone="no"?>
<!DOCTYPE svg PUBLIC "-//W3C//DTD SVG 1.1//EN" "http://www.w3.org/Graphics/SVG/1.1/DTD/svg11.dtd" >
<svg xmlns="http://www.w3.org/2000/svg">
<metadata>
Created by FontPrep 20130207 at Sun Jul  6 13:39:55 2014
 By Michael Ball
(c) 1989, 1995, 2001 Adobe Systems Incorporated. All rights reserved.
</metadata>
<defs>
<font id="00ad8a10ebd59fb2cc3fe9f97989bf60" horiz-adv-x='1024' >
  <font-face 
    font-family="VAGRoundedStd-Bold"
    font-weight="700"
    font-stretch="normal"
    units-per-em="2048"
    panose-1="2 15 8 2 2 2 4 2 2 4"
    ascent="1577"
    descent="-471"
    x-height="1090"
    cap-height="1470"
    bbox="-310 -635 2171 1923.02"
    underline-thickness="102"
    underline-position="-102"
    unicode-range="U+0020-FB02"
  />
<missing-glyph horiz-adv-x="1024" 
d="M102 1239v-1044l349 522zM164 102h696l-348 523zM573 717l349 -522v1044zM512 809l348 522h-696zM0 0v1434h1024v-1434h-1024z" />
    <glyph glyph-name="f_i" unicode="fi" horiz-adv-x="1062" 
d="M836 1544q66 0 116 -49t49 -116q0 -67 -48 -117q-47 -50 -115 -50t-118 52t-50 116t50 114t116 50zM688 152v786q0 74 41 119t107 45t106 -45t41 -119v-786q0 -74 -41 -119q-40 -45 -106 -45t-107 45t-41 119zM152 152v679h-66q-59 0 -94 35q-35 34 -35 92t37 95t92 37
h66v151q0 160 85 248t224 88q72 0 126 -32t54 -101q0 -125 -109 -125q-40 0 -62 -15t-24 -94v-120h72q143 0 144 -129q0 -94 -35 -111t-109 -19h-72v-679q0 -74 -40 -119t-107 -45t-107 45t-40 119z" />
    <glyph glyph-name="f_l" unicode="fl" horiz-adv-x="1062" 
d="M688 152v1261q0 74 41 119t107 45t106 -45t41 -119v-1261q0 -74 -41 -119q-40 -45 -106 -45t-107 45t-41 119zM152 152v679h-66q-59 0 -94 35q-35 34 -35 92t37 95t92 37h66v151q0 160 85 248t224 88q72 0 126 -32t54 -101q0 -125 -109 -125q-40 0 -62 -15t-24 -94v-120
h72q143 0 144 -129q0 -94 -35 -111t-109 -19h-72v-679q0 -74 -40 -119t-107 -45t-107 45t-40 119z" />
    <glyph glyph-name=".notdef" horiz-adv-x="1024" 
d="M102 1239v-1044l349 522zM164 102h696l-348 523zM573 717l349 -522v1044zM512 809l348 522h-696zM0 0v1434h1024v-1434h-1024z" />
    <glyph glyph-name=".null" horiz-adv-x="0" 
 />
    <glyph glyph-name="nonmarkingreturn" horiz-adv-x="681" 
 />
    <glyph glyph-name="space" unicode=" " horiz-adv-x="548" 
 />
    <glyph glyph-name="exclam" unicode="!" horiz-adv-x="684" 
d="M342 -25q-66 -1 -113 47t-47 114t47 112q47 47 113 47t113 -47t47 -113t-47 -113t-113 -47zM195 555v788q0 63 42 101t105 39q63 0 105 -39t42 -101v-788q0 -61 -42 -100t-105 -39t-105 38t-42 101z" />
    <glyph glyph-name="quotedbl" unicode="&#x22;" horiz-adv-x="909" 
d="M145 1012v348q0 55 33 89t90 34t90 -34t33 -89v-348q0 -55 -33 -89t-90 -34t-90 34t-33 89zM518 1012v348q0 55 33 89t90 34t90 -34t33 -89v-348q0 -55 -33 -89t-90 -34t-90 34t-33 89z" />
    <glyph glyph-name="numbersign" unicode="#" horiz-adv-x="1228" 
d="M535 846l-33 -234h194l33 234h-194zM160 846q-47 0 -73 28t-26 70q0 41 26 70t73 28h205l45 330q8 53 31 76q24 22 67 22t71 -24q27 -24 27 -48q0 -25 -4 -59l-41 -297h197l45 330q15 98 99 98q42 0 70 -24t28 -48q0 -25 -5 -59l-41 -297h176q47 0 73 -28t26 -70
q0 -41 -26 -70t-73 -28h-204l-33 -234h176q47 0 73 -28t26 -70q0 -41 -26 -70t-73 -28h-205l-45 -330q-15 -98 -99 -98q-42 0 -70 24t-28 48q0 26 5 59l41 297h-197l-45 -330q-14 -98 -98 -98q-42 0 -71 24q-28 24 -28 48q0 26 4 59l41 297h-176q-46 0 -72 28t-26 70
q0 41 26 70t72 28h205l33 234h-176z" />
    <glyph glyph-name="dollar" unicode="$" horiz-adv-x="1099" 
d="M45 1018q0 190 126 315t314 146v63q0 35 2 51q3 17 15 31t39 14q48 0 53 -45q2 -16 2 -51v-63q180 -5 292 -85q66 -48 66 -112t-38 -110t-87 -46t-119 26t-114 30v-273q61 -18 89 -26t88 -32t91 -43q102 -63 141 -133q54 -98 56 -224q0 -199 -133 -326t-332 -143v-66
q0 -57 -14 -77q-14 -19 -41 -19q-45 0 -54 49q-2 16 -2 47v64q-100 2 -192 19t-173 71t-81 124q0 72 38 114t91 42q54 0 156 -36t161 -42v342q-10 4 -60 19l-90 27q-40 12 -105 46q-64 34 -98 70t-60 100q-26 62 -27 142zM485 946v234q-109 -29 -108 -125q-1 -68 108 -109z
M729 446q0 89 -133 134v-299q63 14 98 59t35 106z" />
    <glyph glyph-name="percent" unicode="%" horiz-adv-x="1478" 
d="M1084 1495q42 0 78 -34t36 -73t-16 -69l-688 -1288q-2 -3 -10 -13t-9 -13q-2 -3 -8 -10t-11 -15t-13 -9q-7 -2 -13 -4q-55 -18 -100 23t-45 81t20 81l678 1278q19 39 39 52t62 13zM1100 184q49 0 78 35t28 86q0 51 -28 87q-29 36 -78 36t-78 -36t-29 -87t29 -86t78 -35z
M1100 -25q-136 -1 -226 97t-90 233t90 233t226 99q136 0 225 -98q90 -97 90 -233t-90 -234t-225 -97zM379 821q-135 -1 -225 97t-91 233q1 135 91 233t225 98t225 -98t90 -233t-90 -233t-225 -97zM379 1030q49 0 78 35t28 86q0 51 -28 87q-29 36 -78 36t-78 -36t-29 -87
t29 -86t78 -35z" />
    <glyph glyph-name="ampersand" unicode="&#x26;" horiz-adv-x="1441" 
d="M788 1130q0 60 -42 90t-89 30t-87 -30t-40 -74t23 -79t86 -96q149 73 149 159zM1262 752q44 0 78 -36t34 -98t-112 -190l-52 -55l140 -158q45 -51 45 -103t-43 -94q-44 -42 -104 -43q-60 0 -105 48l-142 147q-221 -195 -443 -195t-365 118t-144 325q0 143 86 256t223 188
q-135 135 -135 288t128 243t302 90q222 0 351 -144q68 -77 68 -185t-76 -201q-74 -93 -185 -150l215 -238l80 92q45 51 78 73t78 22zM344 446q0 -94 58 -147t155 -53q135 0 260 119l-297 329q-176 -113 -176 -248z" />
    <glyph glyph-name="quotesingle" unicode="'" horiz-adv-x="491" 
d="M123 1012v348q0 55 33 89t90 34t90 -34t33 -89v-348q0 -55 -33 -89t-90 -34t-90 34t-33 89z" />
    <glyph glyph-name="parenleft" unicode="(" horiz-adv-x="493" 
d="M357 1483q48 0 87 -34t39 -77t-39 -143q-106 -329 -106 -655t94 -597q51 -133 51 -175t-37 -80t-96 -38t-104 78q-76 129 -121 382t-45 443q0 189 56 481t149 388q24 27 72 27z" />
    <glyph glyph-name="parenright" unicode=")" horiz-adv-x="493" 
d="M136 -315q-48 -1 -87 33t-39 77t39 144q107 329 107 655t-95 596q-51 133 -51 176t36 80t96 37t106 -78q76 -129 121 -382t45 -443t-56 -481q-56 -292 -149 -388q-25 -26 -73 -26z" />
    <glyph glyph-name="asterisk" unicode="*" horiz-adv-x="796" 
d="M293 1376q-1 46 29 70t75 24t75 -24t30 -63q0 -40 -17 -136q50 36 80 60t70 24q41 0 72 -36t31 -77q0 -40 -22 -62t-79 -44t-64 -27q14 -6 66 -25t75 -46q23 -28 23 -64q-1 -36 -31 -73t-69 -37t-66 20t-86 66l17 -129q0 -47 -30 -71t-75 -24t-75 24t-29 56q0 32 7 80
q7 47 9 64q-18 -11 -66 -49q-48 -37 -87 -37t-68 37t-29 74q0 63 57 89q19 10 55 24t50 21q-8 4 -63 27q-55 22 -77 44t-22 62t29 77q29 36 66 36t81 -30q43 -30 74 -54q-16 128 -16 129z" />
    <glyph glyph-name="plus" unicode="+" horiz-adv-x="1228" 
d="M492 641v297q0 55 32 89q33 34 90 34q56 0 90 -34t33 -89v-297h297q57 0 90 -34t33 -89t-33 -89t-90 -34h-297v-297q-1 -55 -33 -89t-90 -34t-90 34q-33 34 -32 89v297h-297q-57 0 -91 34q-33 34 -32 89q0 55 32 89q33 34 91 34h297z" />
    <glyph glyph-name="comma" unicode="," horiz-adv-x="548" 
d="M106 -274q-42 0 -84 40t-42 82t24 95l170 307q38 69 132 69q42 1 85 -39t43 -96q1 -25 -26 -82l-172 -307q-16 -33 -52 -51t-78 -18z" />
    <glyph glyph-name="hyphen" unicode="-" horiz-adv-x="796" 
d="M733 592q0 -53 -31 -88t-86 -39h-436q-55 4 -86 39t-31 88q0 121 117 131h436q117 -10 117 -131z" />
    <glyph glyph-name="period" unicode="." horiz-adv-x="548" 
d="M115 135q0 66 47 113q46 47 112 47t113 -47t47 -113q0 -67 -47 -113t-113 -46t-112 46q-46 47 -47 113z" />
    <glyph glyph-name="slash" unicode="/" horiz-adv-x="833" 
d="M696 1483q51 0 86 -33t35 -80q0 -14 -18 -57l-545 -1262q-35 -76 -115 -76q-51 0 -87 33t-36 80q1 14 19 57l547 1262q31 76 114 76z" />
    <glyph glyph-name="zero" unicode="0" 
d="M588 -25q-147 0 -258 70q-111 71 -170 185t-87 239t-28 260t28 260t87 240t170 185t258 69q147 0 258 -70q111 -71 170 -185q116 -225 115 -501t-115 -498q-59 -115 -170 -185t-258 -69zM588 254q223 0 223 475t-223 475t-223 -475t223 -475z" />
    <glyph glyph-name="one" unicode="1" horiz-adv-x="757" 
d="M311 147v1029h-121q-70 0 -104 42t-35 99q0 57 38 99t101 42h291q63 0 101 -41t36 -104v-1166q0 -75 -43 -117t-111 -42t-110 42q-43 42 -43 117z" />
    <glyph glyph-name="two" unicode="2" 
d="M924 270q72 0 116 -34t43 -101q0 -67 -42 -101t-105 -34h-684q-72 0 -116 34t-44 91t51 119t223 254t263 325q92 133 92 207t-43 122t-107 48q-65 0 -103 -34t-53 -83t-29 -98t-47 -83q-31 -34 -93 -34t-102 43t-40 107q0 190 144 328t339 137q193 0 323 -118t130 -308
q0 -100 -57 -218t-117 -195t-172 -203q-110 -126 -145 -171h375z" />
    <glyph glyph-name="three" unicode="3" 
d="M574 1483q186 0 302 -119t115 -256q0 -207 -168 -313q113 -51 182 -149t68 -218q1 -186 -149 -319t-365 -133t-354 124q-139 125 -139 260q0 58 49 98t101 40q84 0 141 -120q22 -44 74 -82t131 -38t135 55q57 55 57 135t-36 120q-36 38 -87 47t-103 17t-87 38
q-35 31 -35 93q1 112 102 136q43 9 86 21t73 46q29 34 29 95t-40 100t-106 39t-112 -32q-45 -32 -64 -68t-53 -69q-34 -32 -86 -32t-90 45q-37 45 -36 107q0 121 139 227q140 106 326 105z" />
    <glyph glyph-name="four" unicode="4" 
d="M670 592v571h-4l-277 -571h281zM670 322h-494q-70 0 -106 38t-37 81q0 44 28 91l459 832q35 63 83 91t136 28t157 -66t69 -196v-629h34q61 0 103 -38t41 -97q0 -59 -41 -97t-103 -38h-34v-175q0 -83 -35 -121t-113 -38q-79 0 -113 39t-34 120v175z" />
    <glyph glyph-name="five" unicode="5" 
d="M1059 543q0 -262 -141 -415t-402 -153q-80 0 -181 30q-101 29 -185 95t-84 150q0 57 40 98q42 41 88 41q46 1 149 -65t191 -66t147 81q58 81 58 181t-51 156q-50 56 -128 57q-78 0 -143 -34q-133 -70 -204 -1q-33 33 -33 64q0 2 6 69l52 433q16 118 50 156t109 38h494
q69 0 109 -36t40 -89q0 -105 -52 -131t-91 -26h-385l-31 -218q98 20 154 21q182 0 303 -127t121 -309z" />
    <glyph glyph-name="six" unicode="6" 
d="M782 482q0 90 -51 152t-140 62t-143 -60t-55 -152q0 -92 53 -152q52 -62 140 -62t142 62t54 150zM1102 473q0 -195 -146 -347t-372 -151t-368 149t-142 359t168 489t352 447q117 117 222 16q50 -49 50 -91t-36 -86t-144 -162t-145 -174l4 -4q55 25 129 24q180 0 304 -137
t124 -332z" />
    <glyph glyph-name="seven" unicode="7" horiz-adv-x="1101" 
d="M182 1176q-78 0 -114 41t-37 100q0 59 37 100t114 41h742q70 0 108 -49t39 -92q0 -43 -47 -141l-508 -1033q-47 -94 -77 -125q-29 -30 -101 -30t-118 47t-46 88t21 82l512 971h-525z" />
    <glyph glyph-name="eight" unicode="8" 
d="M588 1212q-70 0 -109 -44t-39 -112t39 -112q39 -43 109 -43t110 43t39 112q1 68 -39 112t-110 44zM586 -25q-212 1 -358 133t-146 334q0 236 219 355q-156 113 -156 291t127 286q128 108 314 109q186 0 316 -109t130 -284q0 -88 -42 -167t-116 -126q104 -53 162 -145
t58 -210q0 -209 -148 -338t-360 -129zM588 668q-86 0 -136 -58t-50 -145t48 -147q50 -60 136 -60t137 61t51 151t-50 144t-136 54z" />
    <glyph glyph-name="nine" unicode="9" 
d="M585 762q89 0 143 60t54 152t-53 152q-53 62 -140 62t-141 -62t-55 -150q0 -89 51 -152q52 -62 141 -62zM74 985q0 195 146 347t372 151q225 -1 367 -149q143 -148 143 -359t-168 -489t-352 -447q-16 -15 -52 -39t-78 -24t-92 48t-51 90q0 42 36 86q35 44 143 162
t147 175l-4 4q-55 -25 -129 -25q-180 0 -304 137t-124 332z" />
    <glyph glyph-name="colon" unicode=":" horiz-adv-x="548" 
d="M115 135q0 66 47 113q46 47 112 47t113 -47t47 -113q0 -67 -47 -113t-113 -46t-112 46q-46 47 -47 113zM115 793q0 67 47 113q46 46 112 46t113 -47t47 -113t-47 -112q-47 -47 -113 -47t-112 47t-47 113z" />
    <glyph glyph-name="semicolon" unicode=";" horiz-adv-x="548" 
d="M115 793q0 67 47 113q46 46 112 46t113 -47t47 -113t-47 -112q-47 -47 -113 -47t-112 47t-47 113zM306 319q42 1 85 -39t43 -96q0 -25 -26 -82l-172 -307q-16 -33 -52 -51t-78 -18t-84 40t-42 82t24 95l170 307q38 69 132 69z" />
    <glyph glyph-name="less" unicode="&#x3c;" horiz-adv-x="1228" 
d="M1157 135q0 -67 -29 -101q-28 -34 -68 -34t-104 29l-809 372q-76 33 -75 117q0 84 75 117l809 371q120 59 172 -4q29 -34 29 -102t-74 -97l-682 -285l682 -285q74 -31 74 -98z" />
    <glyph glyph-name="equal" unicode="=" horiz-adv-x="1228" 
d="M195 412h839q57 0 90 -34t33 -89t-33 -89t-90 -34h-839q-57 0 -91 34q-33 34 -32 89q0 55 32 89q34 34 91 34zM195 870h839q57 0 90 -34t33 -88q0 -56 -33 -90t-90 -33h-839q-57 0 -91 33q-32 34 -32 90t32 89q34 33 91 33z" />
    <glyph glyph-name="greater" unicode="&#x3e;" horiz-adv-x="1228" 
d="M169 1036q40 0 103 -30l809 -371q76 -33 76 -117t-76 -117l-809 -372q-63 -29 -103 -29t-69 34t-29 101t74 98l682 285l-682 285q-73 31 -73 98t28 101q29 34 69 34z" />
    <glyph glyph-name="question" unicode="?" horiz-adv-x="985" 
d="M449 -25q-66 -1 -113 47t-47 114t47 112q47 47 113 47q67 0 113 -47t46 -113t-46 -113t-113 -47zM301 557v205q0 42 32 62t56 26q25 6 47 12t31 8q78 20 121 58t43 110t-51 117q-52 45 -114 45t-110 -32t-76 -70q-26 -38 -66 -69q-40 -32 -89 -32t-84 40t-35 108
q0 100 77 181t178 119t200 38q207 0 348 -120t141 -319q0 -164 -94 -268t-260 -145v-74q0 -61 -42 -101t-108 -40t-105 39q-40 39 -40 102z" />
    <glyph glyph-name="at" unicode="@" horiz-adv-x="1638" 
d="M819 1483q189 0 363 -84t282 -237t109 -337q0 -94 -32 -176t-83 -136q-141 -149 -337 -195q-46 -11 -74 -11q-141 0 -142 101h-4q-84 -100 -213 -100t-217 109q-88 110 -88 247q0 182 112 319q111 137 279 137t248 -123h4v25q0 98 115 98q41 0 67 -15t27 -41
q0 -26 -8 -67l-82 -372q-8 -33 -8 -68q0 -43 54 -43t126 82t72 229q0 211 -168 342t-404 131q-235 0 -401 -166t-166 -403t166 -403t408 -166t421 96q11 6 63 47t74 41q76 0 76 -76q0 -43 -55 -110q-201 -182 -584 -183q-311 -1 -532 221t-221 533t221 533t532 221zM781 911
q-75 1 -132 -69t-57 -145t38 -128t115 -53q78 0 137 67q58 67 58 147t-42 130q-42 51 -117 51z" />
    <glyph glyph-name="A" unicode="A" horiz-adv-x="1290" 
d="M647 1163l-194 -594h389l-191 594h-4zM650 1483q77 0 134 -46t84 -124l402 -1114q16 -43 16 -89t-42 -84t-99 -38q-115 0 -150 106l-61 193h-569l-62 -191q-35 -109 -147 -108q-61 0 -107 41q-45 41 -45 88t14 82l412 1114q27 74 85 122t135 48z" />
    <glyph glyph-name="B" unicode="B" 
d="M399 610v-340h242q86 0 139 47q54 47 54 127t-56 122q-56 44 -162 44h-217zM399 1188v-307h160q76 0 121 43q45 44 45 116t-47 110t-119 38h-160zM92 156v1149q0 73 45 113t117 40h393q164 0 275 -100t110 -260q0 -211 -190 -301v-4q131 -19 221 -117t90 -232
q0 -212 -129 -328t-346 -116h-422q-72 0 -118 42t-46 114z" />
    <glyph glyph-name="C" unicode="C" horiz-adv-x="1251" 
d="M35 730q0 323 197 538q198 215 507 215q130 0 276 -46q73 -24 119 -72q46 -49 46 -109t-36 -100t-79 -40t-136 36t-190 36q-182 0 -283 -133q-102 -133 -102 -329t102 -326t283 -130q95 0 195 43t131 43q61 0 98 -47t37 -105t-49 -107q-78 -80 -274 -110
q-72 -11 -138 -12q-309 0 -507 216q-197 216 -197 539z" />
    <glyph glyph-name="D" unicode="D" horiz-adv-x="1366" 
d="M399 1176v-893h207q190 0 288 123q97 124 97 324t-101 323t-304 123h-187zM92 154v1146q0 70 44 114t114 44h340q340 0 530 -203t190 -535t-190 -526q-192 -194 -510 -194h-356q-61 0 -112 37q-50 37 -50 117z" />
    <glyph glyph-name="E" unicode="E" horiz-adv-x="948" 
d="M92 154v1126q0 80 41 129t119 49h508q70 0 108 -42t37 -99q0 -57 -39 -99t-106 -42h-361v-299h336q72 0 111 -42q39 -41 39 -99t-40 -100t-110 -42h-336v-311h379q70 0 108 -42q38 -41 38 -99t-39 -100t-107 -42h-528q-68 0 -113 43t-45 111z" />
    <glyph glyph-name="F" unicode="F" horiz-adv-x="909" 
d="M92 147v1151q0 66 43 113t117 47h524q62 0 100 -42t38 -99t-36 -99t-102 -42h-377v-299h318q71 0 109 -41q38 -40 38 -98t-39 -101t-108 -43h-318v-447q0 -75 -43 -117q-42 -42 -110 -42t-111 42t-43 117z" />
    <glyph glyph-name="G" unicode="G" horiz-adv-x="1441" 
d="M879 864h348q94 0 137 -48t43 -148q0 -301 -182 -497q-183 -196 -489 -196t-504 216t-198 539t198 538t507 215q227 0 395 -89t169 -200q0 -66 -36 -104t-86 -39q-82 0 -175 74q-35 28 -106 52t-161 23q-182 0 -283 -136q-102 -136 -102 -336t100 -335t285 -135
q139 0 244 81q104 81 104 243h-208q-63 0 -104 40q-40 40 -40 103t42 101q43 38 102 38z" />
    <glyph glyph-name="H" unicode="H" horiz-adv-x="1441" 
d="M92 147v1164q0 75 43 117t111 42t110 -42t43 -117v-434h643v434q0 75 43 117t111 42t111 -42t43 -117v-1164q0 -75 -43 -117t-111 -42t-111 42t-43 117v447h-643v-447q0 -75 -43 -117q-42 -42 -110 -42t-111 42t-43 117z" />
    <glyph glyph-name="I" unicode="I" horiz-adv-x="491" 
d="M92 147v1164q0 75 43 117t111 42t110 -42t43 -117v-1164q0 -75 -43 -117q-42 -42 -110 -42t-111 42t-43 117z" />
    <glyph glyph-name="J" unicode="J" horiz-adv-x="833" 
d="M754 1311v-901q0 -336 -264 -414q-182 -54 -382 29q-60 25 -99 72q-38 49 -38 103t34 94t77 40t123 -38t124 -38q86 0 104 64q13 45 13 108v881q0 75 43 117t111 42t111 -42t43 -117z" />
    <glyph glyph-name="K" unicode="K" horiz-adv-x="1251" 
d="M92 135v1184q0 63 43 107t111 44t110 -40t43 -111v-442l504 536q53 57 117 57t108 -42q46 -42 46 -105t-101 -164l-387 -381l473 -493q86 -86 86 -155q0 -70 -46 -106q-47 -36 -101 -36t-86 22t-82 74l-531 573v-522q0 -61 -43 -104q-42 -43 -110 -43t-111 40t-43 107z
" />
    <glyph glyph-name="L" unicode="L" horiz-adv-x="872" 
d="M92 168v1143q0 75 43 117t111 42t110 -42t43 -117v-1028h365q74 0 112 -45q38 -46 34 -102t-43 -96q-40 -40 -103 -40h-512q-74 0 -117 45t-43 123z" />
    <glyph glyph-name="M" unicode="M" horiz-adv-x="1781" 
d="M440 1470q76 0 132 -44t75 -103l242 -811h4l242 811q18 59 74 103t132 44q77 0 133 -49t66 -108l191 -1143q2 -12 2 -35q0 -67 -42 -107t-112 -40q-71 0 -107 35t-47 108l-120 834h-5l-245 -859q-35 -118 -164 -118t-164 118l-246 859h-4l-121 -834q-10 -75 -47 -109
t-106 -34t-112 41q-42 41 -42 106q0 23 2 35l191 1143q10 59 66 108t132 49z" />
    <glyph glyph-name="N" unicode="N" horiz-adv-x="1402" 
d="M80 147v1164q0 75 43 117t110 42q31 0 70 -20t59 -47l650 -866h4v774q0 75 43 117t111 42t110 -42q43 -42 43 -117v-1164q0 -75 -43 -117t-111 -42q-29 0 -69 20t-60 47l-649 856h-4v-764q0 -75 -43 -117t-111 -42q-69 0 -111 42t-42 117z" />
    <glyph glyph-name="O" unicode="O" horiz-adv-x="1478" 
d="M740 -25q-310 0 -508 216t-198 539t198 538t505 215t507 -219t200 -538t-197 -535t-507 -216zM739 258q186 0 286 135q99 135 99 335t-101 336t-283 136t-284 -136t-102 -336t100 -335t285 -135z" />
    <glyph glyph-name="P" unicode="P" horiz-adv-x="1138" 
d="M399 1188v-434h209q94 0 153 61q58 61 58 155t-58 156q-58 61 -153 62h-209zM92 147v1151q0 74 42 117t118 43h362q228 0 376 -136t148 -354t-146 -352q-148 -134 -365 -133h-228v-336q0 -75 -43 -117q-42 -42 -110 -42t-111 42t-43 117z" />
    <glyph glyph-name="Q" unicode="Q" horiz-adv-x="1478" 
d="M1124 752q0 174 -101 311t-283 137t-284 -136t-102 -336t100 -335t285 -135q59 0 131 14l-73 72q-39 35 -39 89t39 97q39 44 88 44t90 -27l100 -80q49 111 49 285zM737 1483q307 0 507 -219t200 -535q0 -276 -137 -473l116 -100q72 -62 72 -120t-44 -96t-100 -38t-134 65
l-117 99q-158 -90 -361 -91q-309 0 -507 216t-198 539t198 538t505 215z" />
    <glyph glyph-name="R" unicode="R" horiz-adv-x="1138" 
d="M399 1176v-363h211q86 0 139 49q52 49 52 134t-52 132t-139 48h-211zM92 147v1151q0 74 41 117t117 43h360q244 0 377 -114t133 -349q0 -162 -106 -261t-273 -126l349 -372q40 -44 40 -98t-44 -102t-114 -48t-114 53l-455 551h-4v-445q0 -75 -43 -117q-42 -42 -110 -42
t-111 42t-43 117z" />
    <glyph glyph-name="S" unicode="S" horiz-adv-x="1099" 
d="M954 1284q0 -68 -38 -112q-38 -46 -87 -46t-134 31t-153 31t-116 -36q-49 -36 -49 -95q1 -59 71 -94t170 -62t200 -69t172 -138q71 -96 71 -243q0 -213 -153 -345t-371 -131q-149 0 -307 41q-85 23 -138 72q-53 50 -53 114t38 106t90 42t167 -40q116 -40 200 -40t140 49
q55 49 55 121t-71 112t-171 66t-200 62q-100 37 -171 122t-71 216q1 209 149 337t350 128t330 -81q80 -50 80 -118z" />
    <glyph glyph-name="T" unicode="T" horiz-adv-x="983" 
d="M338 147v1029h-223q-70 0 -105 42t-35 99t38 99t102 42h753q64 0 102 -42t38 -99t-35 -99t-105 -42h-223v-1029q0 -75 -43 -117q-42 -42 -110 -42t-111 42t-43 117z" />
    <glyph glyph-name="U" unicode="U" horiz-adv-x="1402" 
d="M80 580v731q0 75 43 117t111 42t110 -42q43 -42 43 -117v-715q0 -146 86 -242t226 -96t229 99q88 99 88 239v715q0 75 43 117t111 42t110 -42q43 -42 43 -117v-731q0 -256 -182 -430q-183 -174 -441 -174t-439 172q-181 174 -181 432z" />
    <glyph glyph-name="V" unicode="V" horiz-adv-x="1212" 
d="M-8 1335q0 51 47 93t111 42q90 0 139 -100l317 -852l318 852q49 100 139 100q63 0 111 -42t47 -93q0 -51 -15 -88l-448 -1141q-23 -57 -57 -88q-34 -30 -95 -30t-95 30q-33 31 -56 88l-449 1141q-14 37 -14 88z" />
    <glyph glyph-name="W" unicode="W" horiz-adv-x="1859" 
d="M1698 1470q63 0 104 -40t41 -86q0 -44 -8 -78l-260 -1119q-17 -71 -69 -115t-130 -44t-133 42t-74 107l-237 791h-4l-238 -791q-18 -65 -74 -107t-133 -42q-78 0 -130 44t-68 115l-260 1119q-9 34 -9 78t41 86t105 40q133 0 164 -147l174 -870h4l266 897q16 55 59 88
q43 32 101 32t100 -32q43 -32 60 -88l266 -897h4l174 870q31 147 164 147z" />
    <glyph glyph-name="X" unicode="X" horiz-adv-x="1253" 
d="M84 1332q0 58 44 98t118 40t127 -75l254 -361l254 361q53 75 127 75t118 -40t43 -98q0 -58 -32 -101l-332 -451l405 -544q35 -48 35 -108t-44 -100q-45 -40 -117 -40t-121 67l-336 467l-336 -467q-49 -67 -122 -67t-117 40t-44 100t35 108l406 544l-332 451
q-33 43 -33 101z" />
    <glyph glyph-name="Y" unicode="Y" horiz-adv-x="1097" 
d="M395 137v547l-387 545q-28 41 -28 97t42 100t116 44t116 -61l295 -428l295 428q42 61 116 61t116 -44t42 -100t-28 -97l-388 -545v-547q0 -63 -38 -106t-115 -43q-76 0 -115 43t-39 106z" />
    <glyph glyph-name="Z" unicode="Z" horiz-adv-x="1214" 
d="M1022 270q66 0 106 -36t41 -96q0 -60 -45 -99t-102 -39h-805q-80 0 -126 41t-46 104t41 121l659 922h-538q-63 0 -104 35q-40 35 -40 94t42 100t102 41h749q84 0 128 -44t44 -110t-45 -124l-655 -910h594z" />
    <glyph glyph-name="bracketleft" unicode="[" horiz-adv-x="569" 
d="M90 -168v1503q0 68 41 108t109 40h204q49 0 79 -29t30 -88t-30 -88t-79 -29h-96v-1331h96q49 0 79 -29t30 -88t-30 -88t-79 -28h-204q-68 -1 -109 39t-41 108z" />
    <glyph glyph-name="backslash" unicode="\" horiz-adv-x="833" 
d="M817 88q0 -47 -36 -80t-87 -33q-82 0 -112 76l-549 1262q-16 45 -17 57q0 47 35 80t86 33q84 0 115 -76l547 -1262q18 -43 18 -57z" />
    <glyph glyph-name="bracketright" unicode="]" horiz-adv-x="569" 
d="M479 1335v-1503q0 -68 -41 -108t-108 -39h-205q-49 1 -79 29t-30 87t30 88t79 29h96v1331h-96q-49 0 -79 29t-30 88t30 88t79 29h205q68 0 108 -40t41 -108z" />
    <glyph glyph-name="asciicircum" unicode="^" horiz-adv-x="1228" 
d="M267 645q-58 0 -88 22q-56 41 -3 142l330 600q30 61 108 61t109 -61l330 -600q55 -100 -3 -142q-30 -22 -88 -22t-92 45l-256 473l-256 -473q-33 -45 -91 -45z" />
    <glyph glyph-name="underscore" unicode="_" horiz-adv-x="1024" 
d="M1024 -256h-1024q-59 0 -59 51t59 51h1024q59 0 59 -51t-59 -51z" />
    <glyph glyph-name="grave" unicode="`" horiz-adv-x="454" 
d="M479 1372q0 -53 -32 -100t-76 -47h-17q-14 1 -23 5t-42 15l-230 90q-84 31 -84 121q0 45 34 86t69 41t86 -20l242 -99l16 -8q57 -31 57 -84z" />
    <glyph glyph-name="a" unicode="a" 
d="M336 544q0 -118 60 -208t171 -90t170 90t59 208t-58 209q-60 91 -171 91t-171 -91t-60 -209zM1092 909v-729q0 -143 -61 -175q-32 -17 -87 -17q-104 0 -135 125q-115 -137 -281 -138q-209 0 -348 160t-139 405q0 246 142 410q141 164 335 164t291 -135q6 53 47 88t92 35
q104 0 126 -70q18 -57 18 -123z" />
    <glyph glyph-name="b" unicode="b" 
d="M379 552q0 -120 59 -213q58 -93 168 -93t172 91t62 207t-62 208t-170 92q-109 0 -169 -86t-60 -206zM84 152v1261q0 74 41 119t107 45t106 -45q41 -45 41 -119v-401q119 102 280 102q223 0 349 -175t127 -401q-1 -226 -137 -395q-136 -168 -349 -168q-79 0 -155 35
t-115 101q-29 -123 -148 -123q-67 0 -107 45t-40 119z" />
    <glyph glyph-name="c" unicode="c" horiz-adv-x="948" 
d="M930 928q0 -50 -32 -96t-74 -46t-116 29t-124 29q-119 0 -184 -89q-64 -89 -64 -209t68 -210t180 -90q41 0 124 30t95 31q51 0 89 -38q38 -37 38 -99t-71 -111q-118 -81 -290 -84q-233 0 -381 166q-147 165 -147 399t150 404q151 170 378 170q113 0 198 -30t124 -67
q39 -38 39 -89z" />
    <glyph glyph-name="d" unicode="d" 
d="M568 246q110 0 170 93t59 213t-61 206t-168 86t-170 -92t-62 -208t61 -207t171 -91zM1092 1413v-1261q0 -74 -41 -119t-107 -45q-119 0 -147 123q-39 -66 -115 -101t-156 -35q-213 0 -349 168t-136 394q0 225 126 401t349 176q162 0 281 -102v401q0 74 41 119
q40 45 106 45t107 -45t41 -119z" />
    <glyph glyph-name="e" unicode="e" horiz-adv-x="1099" 
d="M552 868q-98 0 -163 -64q-64 -64 -74 -161h469q-12 101 -73 163t-159 62zM950 446h-628q14 -104 92 -158q163 -113 381 5q111 59 149 59t74 -39q37 -39 37 -88q0 -92 -157 -171t-325 -79q-245 0 -399 160q-154 159 -154 399t151 410t378 170t379 -169t151 -367
q0 -132 -129 -132z" />
    <glyph glyph-name="f" unicode="f" horiz-adv-x="606" 
d="M152 152v679h-66q-59 0 -94 35q-35 34 -35 92t37 95t92 37h66v151q0 160 85 248t224 88q205 0 205 -133q0 -125 -121 -125q-78 0 -91 -46q-7 -24 -8 -63v-120h93q150 0 149 -129q0 -129 -149 -130h-93v-679q0 -74 -40 -119t-107 -45t-107 45t-40 119z" />
    <glyph glyph-name="g" unicode="g" 
d="M566 246q110 0 170 86t61 206t-59 213t-170 93t-170 -91q-62 -91 -62 -212t60 -208t170 -87zM1092 938v-852q0 -258 -154 -395t-414 -137q-211 0 -370 93q-94 54 -95 128q0 43 38 86t78 43t159 -46q120 -46 222 -46t172 62t69 171v70h-4q-94 -139 -305 -139t-329 163
q-118 165 -118 399t135 405t350 171q80 0 156 -35t115 -100q29 123 147 123q66 0 107 -45t41 -119z" />
    <glyph glyph-name="h" unicode="h" horiz-adv-x="1138" 
d="M84 152v1261q0 74 41 119t107 45t106 -45q41 -45 41 -119v-401h4q84 102 265 102t294 -106t113 -291v-565q0 -74 -41 -119t-107 -45q-67 0 -107 45t-40 119v514q0 98 -54 150t-140 52t-137 -57q-50 -57 -50 -145v-514q0 -74 -41 -119t-107 -45q-67 0 -107 45t-40 119z
" />
    <glyph glyph-name="i" unicode="i" horiz-adv-x="454" 
d="M227 1544q66 0 116 -49t50 -116t-48 -117t-116 -50q-67 0 -117 52t-50 116t49 114q50 50 116 50zM80 152v786q0 74 41 119t107 45t106 -45q41 -45 41 -119v-786q0 -74 -41 -119t-107 -45q-67 0 -107 45t-40 119z" />
    <glyph glyph-name="j" unicode="j" horiz-adv-x="454" 
d="M227 1544q66 0 116 -49t50 -116t-48 -117t-116 -50q-67 0 -117 52t-50 116t49 114q50 50 116 50zM80 -283v1221q0 74 41 119t107 45t106 -45q41 -45 41 -119v-1221q0 -75 -41 -119t-107 -44q-67 0 -107 44t-40 119z" />
    <glyph glyph-name="k" unicode="k" horiz-adv-x="1024" 
d="M84 152v1261q0 74 41 119t107 45t106 -45q41 -45 41 -119v-688l323 313q66 64 126 64t97 -41q36 -41 36 -99t-58 -110l-262 -234l346 -405q37 -43 37 -99t-41 -98t-103 -41q-62 0 -137 91l-360 444h-4v-358q0 -74 -41 -119t-107 -45q-67 0 -107 45t-40 119z" />
    <glyph glyph-name="l" unicode="l" horiz-adv-x="454" 
d="M80 152v1261q0 74 41 119t107 45t106 -45q41 -45 41 -119v-1261q0 -74 -41 -119t-107 -45q-67 0 -107 45t-40 119z" />
    <glyph glyph-name="m" unicode="m" horiz-adv-x="1744" 
d="M84 152v786q0 74 41 119t106 45q119 0 136 -111q113 123 287 123t292 -149q58 69 146 109t165 40q184 0 294 -103t110 -294v-565q0 -74 -41 -119t-107 -45q-67 0 -107 45t-40 119v514q0 90 -46 146t-126 56t-127 -56t-47 -146v-514q0 -74 -41 -119t-107 -45t-106 45
t-41 119v514q0 90 -46 146t-130 56t-127 -54t-43 -148v-514q0 -74 -41 -119t-107 -45q-67 0 -107 45t-40 119z" />
    <glyph glyph-name="n" unicode="n" horiz-adv-x="1138" 
d="M84 152v786q0 74 41 119t106 45q119 0 136 -109q86 121 274 121t301 -106t113 -291v-565q0 -74 -41 -119t-107 -45q-67 0 -107 45t-40 119v514q0 98 -54 150t-140 52t-137 -57q-50 -57 -50 -145v-514q0 -74 -41 -119t-107 -45q-67 0 -107 45t-40 119z" />
    <glyph glyph-name="o" unicode="o" horiz-adv-x="1138" 
d="M569 844q-113 0 -173 -91t-60 -209t60 -208t173 -90t173 90t60 208t-60 209t-173 91zM569 1114q227 0 378 -170t151 -404t-148 -399q-148 -166 -380 -166q-234 0 -382 166q-147 165 -147 399t150 404q151 170 378 170z" />
    <glyph glyph-name="p" unicode="p" 
d="M379 552q0 -120 59 -213q58 -93 168 -93t172 91t62 207t-62 208t-170 92q-109 0 -169 -86t-60 -206zM84 -283v1221q0 74 41 119t106 45q119 0 148 -123q39 67 117 101t163 34q223 0 349 -175t127 -401q-1 -226 -137 -395q-136 -168 -349 -168q-152 0 -270 103v-361
q0 -75 -41 -119t-107 -44q-67 0 -107 44t-40 119z" />
    <glyph glyph-name="q" unicode="q" 
d="M568 246q110 0 170 93t59 213t-61 206t-168 86t-170 -92t-62 -208t61 -207t171 -91zM1092 938v-1221q0 -75 -41 -119t-107 -44t-106 45t-41 118v361q-119 -102 -271 -103q-213 0 -349 168t-136 394q0 225 126 401t349 176q86 0 164 -35t117 -100q29 123 147 123
q66 0 107 -45t41 -119z" />
    <glyph glyph-name="r" unicode="r" horiz-adv-x="681" 
d="M80 152v802q0 70 46 109t105 39q143 0 144 -123h4q84 123 207 123q59 0 101 -41t42 -117q0 -34 -17 -58q-16 -24 -34 -33t-62 -27q-197 -78 -228 -149q-13 -32 -13 -73v-452q0 -74 -41 -119t-107 -45q-67 0 -107 45t-40 119z" />
    <glyph glyph-name="s" unicode="s" horiz-adv-x="872" 
d="M463 1114q183 0 299 -94q64 -50 63 -110t-35 -100t-71 -40t-131 43t-142 43q-106 0 -106 -82q0 -36 53 -66t128 -57t150 -63t128 -105q53 -68 53 -161q0 -150 -116 -248t-304 -99q-137 0 -274 67t-138 161q0 41 36 86t90 45t144 -50t160 -50q68 0 94 20t26 60t-54 69
q-53 29 -128 57q-76 28 -150 63q-74 37 -127 105t-54 162q0 154 112 249t294 95z" />
    <glyph glyph-name="t" unicode="t" horiz-adv-x="606" 
d="M156 152v679h-66q-59 0 -94 35q-35 34 -35 92t37 95t92 37h66v176q0 74 41 118t107 46q66 0 106 -46q41 -46 41 -118v-176h84q61 0 101 -32t40 -98t-40 -97q-40 -32 -101 -32h-84v-679q0 -74 -41 -119t-107 -45q-67 0 -107 45t-40 119z" />
    <glyph glyph-name="u" unicode="u" horiz-adv-x="1138" 
d="M84 406v532q0 74 41 119t107 45t106 -45q41 -45 41 -119v-526q0 -88 56 -140t134 -51q78 0 134 51t57 140v526q0 74 41 119t107 45t106 -45q41 -45 41 -119v-532q0 -199 -127 -315q-126 -116 -358 -116t-359 116t-127 315z" />
    <glyph glyph-name="v" unicode="v" horiz-adv-x="946" 
d="M-2 972q0 54 45 92t109 38q98 0 131 -105l188 -581h4l189 581q33 104 131 105q63 0 108 -38t45 -92t-18 -100l-297 -761q-25 -63 -58 -93t-103 -30t-102 30t-57 93l-297 761q-18 46 -18 100z" />
    <glyph glyph-name="w" unicode="w" horiz-adv-x="1593" 
d="M14 983q0 49 42 84t100 35t96 -32q37 -32 49 -85l170 -563h4l172 551q37 129 150 129t149 -129l172 -551h4l170 563q12 53 49 85t97 32t100 -39t41 -105q0 -20 -29 -110l-252 -711q-53 -149 -179 -149t-169 137l-151 475h-4l-152 -475q-43 -137 -169 -137t-179 149
l-250 707q-31 90 -31 139z" />
    <glyph glyph-name="x" unicode="x" horiz-adv-x="1024" 
d="M45 960q0 54 47 98q46 44 106 44t107 -58l207 -258l207 258q47 58 106 58t107 -43t47 -99q0 -56 -45 -108l-250 -281l299 -340q41 -45 41 -104t-40 -99t-95 -40t-80 15t-53 50l-244 299l-244 -299q-51 -65 -120 -65q-68 0 -108 40t-40 99t41 104l299 340l-250 281
q-45 53 -45 108z" />
    <glyph glyph-name="y" unicode="y" horiz-adv-x="985" 
d="M-4 983q0 45 45 82t94 37q109 0 148 -105l202 -555l217 555q39 104 148 105q49 0 94 -37t45 -86t-14 -80l-494 -1229q-47 -117 -139 -116q-72 0 -113 38t-41 82q0 46 19 93l129 319l-326 813q-14 39 -14 84z" />
    <glyph glyph-name="z" unicode="z" horiz-adv-x="985" 
d="M170 831q-57 0 -95 35q-38 34 -38 94t38 95t95 35h670q48 0 71 -28q25 -28 25 -70t-31 -83l-465 -651h389q57 0 95 -35t39 -94q0 -59 -38 -94t-96 -35h-686q-51 0 -86 26t-35 68t27 86l463 651h-342z" />
    <glyph glyph-name="braceleft" unicode="{" horiz-adv-x="681" 
d="M176 -47v397q0 84 -25 110q-26 26 -73 26t-73 28q-26 29 -25 70q0 42 26 70t72 28q47 0 73 26t25 109v397q0 268 273 269h126q41 0 67 -24q26 -25 26 -69t-26 -68t-67 -24h-51q-90 0 -90 -118v-387q0 -134 -86 -172q-64 -28 -135 -35v-4q157 -15 199 -98q23 -44 22 -109
v-387q0 -119 90 -119h51q41 0 67 -24q26 -25 26 -69t-26 -68t-67 -23h-126q-273 0 -273 268z" />
    <glyph glyph-name="bar" unicode="|" horiz-adv-x="454" 
d="M104 -512v2048q0 55 33 89t90 34t90 -34t33 -89v-2048q0 -55 -33 -89t-90 -34t-90 34t-33 89z" />
    <glyph glyph-name="braceright" unicode="}" horiz-adv-x="681" 
d="M506 1214v-397q0 -83 26 -109t72 -26q47 0 73 -29q25 -29 25 -69t-26 -70q-26 -29 -72 -29q-47 1 -73 -25t-25 -110v-397q0 -268 -273 -268h-127q-40 -1 -66 23t-26 69t26 69t66 23h52q90 0 90 119v387q0 132 86 172q58 26 135 35v4q-77 8 -127 30q-96 44 -94 177v387
q0 119 -90 118h-52q-40 0 -66 24t-26 69t26 69t66 23h127q273 -1 273 -269z" />
    <glyph glyph-name="asciitilde" unicode="~" horiz-adv-x="1228" 
d="M395 711q83 0 235 -70t205 -70q53 1 118 63t107 62t64 -30t21 -70q0 -102 -86 -186t-225 -84q-82 0 -235 70t-206 69t-118 -63t-107 -62t-63 30q-22 30 -21 70q0 102 86 186t225 85z" />
    <glyph glyph-name="uni00A0" unicode="&#xa0;" horiz-adv-x="548" 
 />
    <glyph glyph-name="exclamdown" unicode="&#xa1;" horiz-adv-x="684" 
d="M342 1114q66 0 113 -47t47 -113t-47 -112t-113 -47q-66 0 -113 47q-47 46 -47 112t47 113t113 47zM195 -254v789q0 63 42 101t105 38t105 -39t42 -100v-789q0 -61 -42 -100t-105 -39t-105 38t-42 101z" />
    <glyph glyph-name="cent" unicode="&#xa2;" horiz-adv-x="948" 
d="M930 179q0 -139 -229 -189q-54 -12 -103 -15v-47q0 -57 -14 -77q-14 -19 -41 -19q-45 0 -54 49q-2 16 -2 47v56q-207 30 -327 186t-119 375q0 219 123 375t323 186v57q0 35 2 51q3 16 15 30t39 16q27 0 39 -14t14 -32q2 -16 2 -51v-49q171 -5 270 -80q62 -45 62 -102
q0 -58 -32 -104t-74 -46t-112 28t-114 32v-596q41 4 117 33t88 28q51 0 89 -38t38 -90zM336 546q0 -91 40 -168t111 -108v551q-75 -31 -113 -107t-38 -168z" />
    <glyph glyph-name="sterling" unicode="&#xa3;" horiz-adv-x="1251" 
d="M870 868q66 0 107 -38t41 -104t-41 -102q-41 -38 -107 -38h-264q0 -160 -104 -303h569q66 0 107 -38t41 -104q0 -65 -41 -103t-107 -38h-803q-76 0 -118 43t-41 117q0 31 44 85q134 164 134 341h-107q-66 0 -106 38t-41 104q0 66 41 102q41 38 106 38h43q-20 39 -37 107
q-16 68 -16 110q0 178 151 288t367 110q216 1 366 -101q151 -102 150 -254q0 -70 -45 -112t-103 -43q-89 0 -157 107q-25 40 -77 74t-129 34t-134 -42t-57 -110t26 -114l31 -54h311z" />
    <glyph glyph-name="currency" unicode="&#xa4;" horiz-adv-x="1228" 
d="M614 1006q-114 0 -188 -79t-74 -197t75 -196t187 -77q112 0 188 78q75 77 75 195t-75 197t-188 79zM614 223q-186 0 -290 94l-117 -120q-23 -25 -64 -25t-65 34t-25 62q0 28 29 58l119 118q-95 106 -95 294t95 280l-119 119q-25 25 -29 47q0 46 25 76q26 30 66 30t63 -24
l117 -117q110 90 290 90t291 -90l117 117q20 24 62 24t67 -34t25 -62t-29 -57l-119 -119q94 -92 94 -280t-94 -294l119 -118q29 -30 29 -58t-25 -62t-67 -34t-62 25l-117 120q-105 -94 -291 -94z" />
    <glyph glyph-name="yen" unicode="&#xa5;" 
d="M434 137v248h-291q-39 0 -69 25q-30 26 -29 62q0 36 30 60t68 25h291v139h-291q-39 0 -69 25t-29 61q0 36 30 62q30 25 68 24h166l-260 361q-29 41 -29 97t42 100t116 44t117 -61l293 -428l293 428q43 61 117 61t115 -44q42 -44 42 -100t-29 -97l-260 -361h166
q39 0 69 -24q29 -24 29 -62t-30 -62t-68 -24h-291v-139h291q39 0 69 -25q29 -26 29 -62t-30 -60t-68 -25h-291v-248q0 -63 -38 -106q-37 -43 -115 -43t-116 43t-38 106z" />
    <glyph glyph-name="brokenbar" unicode="&#xa6;" horiz-adv-x="454" 
d="M104 -236v472q0 55 33 89q33 33 90 33t90 -34t33 -88v-472q0 -55 -33 -89q-33 -33 -90 -33t-90 34t-33 88zM104 788v472q0 55 33 89q33 33 90 33t90 -34t33 -88v-472q0 -55 -33 -89q-33 -33 -90 -33t-90 34t-33 88z" />
    <glyph glyph-name="section" unicode="&#xa7;" 
d="M815 469q0 96 -151 154l-226 88q-90 -68 -90 -151t105 -132l258 -109q104 61 104 150zM573 1483q253 0 413 -124q93 -73 93 -179q0 -58 -41 -102t-89 -44q-81 0 -159 89q-80 89 -184 89q-58 0 -102 -40q-45 -40 -45 -96t41 -87t144 -67t155 -64q158 -66 247 -142t89 -204
q-1 -127 -53 -208t-164 -159q88 -115 88 -215q0 -172 -127 -274t-309 -102t-343 95q-162 95 -161 214q0 65 48 109t110 44t115 -67q23 -29 49 -58q59 -67 149 -67q55 0 102 32t47 85t-39 88t-95 58q-57 23 -110 43q-217 80 -309 166q-92 87 -92 218t44 211t138 158
q-51 55 -73 102q-23 47 -23 113q0 178 129 282t317 103z" />
    <glyph glyph-name="dieresis" unicode="&#xa8;" horiz-adv-x="454" 
d="M-145 1382q0 60 43 104t104 44t104 -43q44 -43 44 -105t-44 -104q-44 -43 -104 -43q-61 0 -104 43t-43 104zM305 1382q0 60 43 104q42 44 104 44t105 -43t43 -105t-43 -104q-43 -43 -104 -43t-105 43q-43 43 -43 104z" />
    <glyph glyph-name="copyright" unicode="&#xa9;" horiz-adv-x="1638" 
d="M250 729q0 -237 166 -403t404 -166t403 166q166 166 166 404t-166 403t-404 165q-237 0 -403 -166t-166 -403zM66 729q0 311 221 533t532 221q311 0 533 -221q222 -220 221 -532q0 -312 -221 -533q-220 -221 -532 -221t-533 220q-221 222 -221 533zM836 967
q-198 1 -197 -237q-1 -238 197 -238q118 0 159 95q27 58 57 67q18 6 46 8q49 -8 65 -31q17 -23 17 -91t-104 -150q-104 -83 -251 -83q-186 0 -297 119t-110 303q0 184 110 303q111 119 297 119q147 0 251 -83q104 -82 104 -150t-16 -90t-66 -31q-35 0 -48 9t-20 12
q-6 4 -14 16t-18 28t-11 27q-49 78 -151 78z" />
    <glyph glyph-name="ordfeminine" unicode="&#xaa;" horiz-adv-x="763" 
d="M370 961q70 0 106 54t36 127t-36 127t-106 54t-109 -55q-38 -55 -38 -127t38 -126t109 -54zM709 1372v-481q0 -90 -91 -90q-84 0 -92 80q-76 -80 -168 -80q-145 0 -238 95q-93 94 -93 242t92 246t219 98t188 -79q8 80 92 80q91 0 91 -111z" />
    <glyph glyph-name="guillemotleft" unicode="&#xab;" horiz-adv-x="1024" 
d="M410 1014q55 0 88 -33q32 -33 32 -80t-22 -78l-162 -248l162 -243q22 -33 22 -79t-34 -83t-94 -37q-62 0 -97 51l-211 326q-18 26 -18 72t49 116l199 281q31 35 86 35zM827 1014q55 0 88 -33t33 -80t-22 -78l-162 -248l162 -243q22 -33 22 -79t-34 -83t-96 -37t-95 51
l-211 326q-18 26 -18 72t49 116l198 281q31 35 86 35z" />
    <glyph glyph-name="logicalnot" unicode="&#xac;" horiz-adv-x="1228" 
d="M195 870h839q57 0 90 -34t33 -88v-465q0 -55 -33 -89t-90 -34t-90 34t-33 89v342h-716q-57 0 -91 33q-32 34 -32 90t32 89q34 33 91 33z" />
    <glyph glyph-name="uni00AD" unicode="&#xad;" horiz-adv-x="796" 
d="M733 592q0 -53 -31 -88t-86 -39h-436q-55 4 -86 39t-31 88q0 121 117 131h436q117 -10 117 -131z" />
    <glyph glyph-name="registered" unicode="&#xae;" horiz-adv-x="1638" 
d="M250 729q0 -237 166 -403t404 -166t403 166q166 166 166 404t-166 403t-404 165q-237 0 -403 -166t-166 -403zM66 729q0 311 221 533t532 221q311 0 533 -221q222 -220 221 -532q0 -312 -221 -533q-220 -221 -532 -221t-533 220q-221 222 -221 533zM700 795h154
q55 0 82 19q27 20 27 72t-27 71t-82 20h-154v-182zM700 647v-241q0 -98 -92 -99q-51 0 -71 24t-21 75v632q0 86 94 86h232q305 0 305 -239q0 -215 -205 -226l145 -237q12 -25 13 -43q0 -72 -96 -72q-25 0 -36 6q-10 7 -16 9t-22 18t-20 26q-3 9 -11 23t-8 17l-129 241h-62z
" />
    <glyph glyph-name="macron" unicode="&#xaf;" horiz-adv-x="454" 
d="M37 1495h381q59 0 96 -33t37 -91t-37 -90t-96 -32h-381q-59 0 -96 32t-37 90t37 91t96 33z" />
    <glyph glyph-name="degree" unicode="&#xb0;" horiz-adv-x="819" 
d="M80 1153q0 137 96 233t234 96t233 -96q96 -96 96 -233t-96 -233t-233 -96q-138 0 -234 96t-96 233zM240 1153q0 -70 50 -120t120 -50t120 50t50 120t-50 120t-120 50t-120 -50t-50 -120z" />
    <glyph glyph-name="plusminus" unicode="&#xb1;" horiz-adv-x="1228" 
d="M195 246h839q57 0 90 -34t33 -89t-33 -89t-90 -34h-839q-57 0 -91 34q-33 34 -32 89q0 55 32 89q34 34 91 34zM492 807v131q0 55 32 89q33 34 90 34q56 0 90 -34t33 -89v-131h297q57 0 90 -34t33 -89t-33 -89t-90 -34h-297v-131q-1 -55 -33 -89t-90 -34t-90 34
q-33 34 -32 89v131h-297q-57 0 -91 34q-33 34 -32 89q0 55 32 89q33 34 91 34h297z" />
    <glyph glyph-name="twosuperior" unicode="&#xb2;" horiz-adv-x="763" 
d="M366 1298q-46 0 -74 -28t-33 -64t-28 -64t-67 -28q-96 0 -96 115q0 82 88 168t219 86t216 -70t85 -184q0 -139 -180 -328q-82 -86 -90 -96h208q90 -1 90 -105t-90 -104h-458q-41 0 -69 20t-28 56t31 65q35 39 146 153q231 237 231 324q-1 85 -101 84z" />
    <glyph glyph-name="threesuperior" unicode="&#xb3;" horiz-adv-x="763" 
d="M274 1063q0 21 16 39t32 24t47 14t47 13q16 7 31 27t16 51q0 68 -90 67q-55 0 -107 -52t-95 -52q-42 0 -66 27t-23 63q0 82 100 140t202 59q104 1 190 -61t85 -172q0 -110 -112 -179q74 -31 119 -90t45 -131q1 -129 -101 -198q-102 -68 -226 -68t-227 64t-104 163
q0 35 33 59t70 23q36 0 60 -31q24 -30 58 -62t94 -32q58 0 96 28t38 66q0 88 -113 105l-34 6q-15 0 -25 5t-27 12t-20 21q-4 13 -7 22q-2 9 -2 30z" />
    <glyph glyph-name="acute" unicode="&#xb4;" horiz-adv-x="454" 
d="M377 1583q35 0 69 -41t33 -86q0 -90 -84 -121l-229 -90q-32 -9 -40 -15t-18 -5h-24q-45 0 -77 47t-32 100t58 84l258 107q51 20 86 20z" />
    <glyph glyph-name="mu" unicode="&#xb5;" horiz-adv-x="1138" 
d="M84 -283v1221q0 74 41 119t107 45t106 -45q41 -45 41 -119v-526q0 -88 56 -140t134 -51q78 0 134 51t57 140v526q0 74 41 119t107 45t106 -45q41 -45 41 -119v-786q0 -74 -41 -119t-107 -45q-67 0 -107 39t-40 102h-4q-31 -78 -84 -116q-52 -38 -102 -38t-104 30t-83 73
h-4v-361q0 -75 -41 -119t-107 -44q-67 0 -107 44t-40 119z" />
    <glyph glyph-name="paragraph" unicode="&#xb6;" horiz-adv-x="1269" 
d="M487 -311v1054q-221 1 -339 93t-117 258q0 204 132 284t372 80h520q57 0 90 -34t33 -89v-1646q0 -55 -33 -89t-90 -34t-90 34t-33 89v1585h-199v-1585q0 -55 -33 -89t-90 -34t-90 34t-33 89z" />
    <glyph glyph-name="periodcentered" unicode="&#xb7;" horiz-adv-x="548" 
d="M274 735q66 0 113 -47t47 -114q0 -66 -47 -112t-113 -46t-112 47t-47 113q1 66 47 112q46 47 112 47z" />
    <glyph glyph-name="cedilla" unicode="&#xb8;" horiz-adv-x="454" 
d="M502 -264q0 -82 -71 -132t-157 -50q-184 0 -184 102q0 23 14 38t28 15t50 -9q35 -9 56 -11q68 -4 67 57q0 50 -35 55q-12 2 -25 2q-57 0 -68 14t-11 35t45 80l49 68h123l-80 -104l45 6q66 0 110 -42t44 -124z" />
    <glyph glyph-name="onesuperior" unicode="&#xb9;" horiz-adv-x="491" 
d="M180 674v588h-69q-90 0 -91 106q0 47 25 75t66 27h190q41 0 65 -24t23 -62v-710q0 -39 -29 -65q-30 -25 -76 -25t-75 24t-29 66z" />
    <glyph glyph-name="ordmasculine" unicode="&#xba;" horiz-adv-x="739" 
d="M370 961q70 0 108 55t38 126t-37 126t-109 55t-109 -55q-38 -55 -38 -126t39 -126t108 -55zM371 1483q147 1 244 -101t97 -242t-96 -240t-246 -99q-150 0 -247 99q-96 100 -96 240q1 140 99 242t245 101z" />
    <glyph glyph-name="guillemotright" unicode="&#xbb;" horiz-adv-x="1024" 
d="M206 1014q62 0 95 -51l211 -326q18 -27 18 -73t-49 -115l-198 -281q-31 -35 -86 -35t-88 33t-33 80q-1 47 22 78l162 251l-162 240q-22 33 -22 79t34 83t96 37zM622 1014q62 0 97 -51l211 -326q18 -27 18 -73t-49 -115l-199 -281q-31 -35 -86 -35t-88 33t-32 80
q-1 47 22 78l162 251l-162 240q-22 33 -22 79t33 83t95 37z" />
    <glyph glyph-name="onequarter" unicode="&#xbc;" horiz-adv-x="1763" 
d="M233 674v588h-69q-90 0 -90 106q0 47 24 75q25 28 66 27h190q41 0 65 -24t23 -62v-710q0 -39 -28 -65q-28 -25 -76 -25q-47 0 -76 24t-29 66zM1111 1495q42 0 78 -34t36 -73t-17 -69l-688 -1288q-2 -3 -9 -13t-19 -27t-20 -20q-9 -2 -15 -4q-54 -18 -100 23
q-45 41 -45 81t20 81l678 1278q20 39 40 52t61 13zM1368 367v313h-4l-172 -313h176zM1415 887q70 0 116 -40t46 -118v-362h20q41 0 67 -25t26 -73q0 -47 -26 -73t-67 -26h-20v-92q0 -90 -104 -90t-105 90v92h-334q-41 0 -60 25t-19 56t18 64l297 500q45 72 145 72z" />
    <glyph glyph-name="onehalf" unicode="&#xbd;" horiz-adv-x="1763" 
d="M233 674v588h-69q-90 0 -90 106q0 47 24 75q25 28 66 27h190q41 0 65 -24t23 -62v-710q0 -39 -28 -65q-28 -25 -76 -25q-47 0 -76 24t-29 66zM1606 0h-465q-41 0 -69 20t-28 56t31 67q35 39 146 153q231 237 231 322q0 84 -94 84q-53 0 -81 -28t-33 -63q-6 -35 -28 -63
t-67 -28q-96 0 -96 115q0 80 88 166t220 86t216 -69t84 -183q0 -61 -35 -131t-76 -117t-93 -102t-66 -76h202q37 0 67 -33t30 -76q0 -100 -84 -100zM1111 1495q42 0 78 -34t36 -73t-17 -69l-688 -1288q-2 -3 -9 -13t-19 -27t-20 -20q-9 -2 -15 -4q-54 -18 -100 23
q-45 41 -45 81t20 81l678 1278q20 39 40 52t61 13z" />
    <glyph glyph-name="threequarters" unicode="&#xbe;" horiz-adv-x="1763" 
d="M268 1059q0 25 16 43t31 24q16 6 47 14q32 8 48 13q16 7 31 27t16 51q0 68 -90 67q-55 0 -107 -52t-95 -52q-42 0 -66 27t-23 63q0 82 100 140t202 59q104 1 190 -61t85 -172q0 -110 -112 -179q75 -31 119 -90t45 -131q1 -129 -101 -198q-102 -68 -226 -68t-227 64
t-104 163q0 35 33 59t70 23q36 0 60 -31q24 -30 58 -62t94 -32q58 0 96 28t38 66q0 88 -113 105l-34 6q-14 0 -40 12t-34 30q-7 19 -7 44zM1266 1495q42 0 79 -34q63 -59 19 -142l-688 -1288q-7 -13 -14 -21t-13 -15t-8 -10t-8 -9t-10 -6q-4 -1 -14 -4t-38 -3t-66 34t-38 74
t20 81l678 1278q19 39 39 52t62 13zM1395 367v313h-4l-172 -313h176zM1442 887q70 0 116 -40t46 -118v-362h20q41 0 67 -25q25 -25 25 -73q0 -47 -26 -73t-66 -26h-20v-92q0 -90 -104 -90t-105 90v92h-334q-41 0 -61 25q-19 25 -19 56t18 64l297 500q45 72 146 72z" />
    <glyph glyph-name="questiondown" unicode="&#xbf;" horiz-adv-x="985" 
d="M537 1114q67 0 113 -47t46 -113t-47 -112t-113 -47q-66 0 -112 47q-47 46 -47 112t47 113t113 47zM684 532v-204q0 -66 -104 -92q-8 -2 -31 -8t-31 -9q-78 -20 -121 -57t-43 -110t52 -118t113 -45q63 0 111 32t75 70q72 101 149 101q55 0 90 -40t35 -107q0 -99 -77 -181
t-178 -120t-200 -37q-207 0 -348 120t-141 318q0 164 94 268t260 146v73q0 62 42 102t108 40q65 0 105 -40t40 -102z" />
    <glyph glyph-name="Agrave" unicode="&#xc0;" horiz-adv-x="1290" 
d="M897 1706q0 -55 -32 -102t-77 -48h-16q-4 0 -9 2t-9 2q-4 1 -11 4t-36 13l-230 90q-84 31 -84 121q0 45 34 86q34 40 69 40t86 -20l241 -98q74 -35 74 -90zM647 1163l-194 -594h389l-191 594h-4zM650 1483q77 0 134 -46t84 -124l402 -1114q16 -43 16 -89t-42 -84t-99 -38
q-115 0 -150 106l-61 193h-569l-62 -191q-35 -109 -147 -108q-61 0 -107 41q-45 41 -45 88t14 82l412 1114q27 74 85 122t135 48z" />
    <glyph glyph-name="Aacute" unicode="&#xc1;" horiz-adv-x="1290" 
d="M897 1788q0 -90 -84 -121l-229 -90q-32 -9 -38 -13q-11 -8 -50 -8t-71 48t-32 100q0 53 58 84l258 106q51 20 85 20t69 -40q34 -41 34 -86zM647 1163l-194 -594h389l-191 594h-4zM650 1483q77 0 134 -46t84 -124l402 -1114q16 -43 16 -89t-42 -84t-99 -38
q-115 0 -150 106l-61 193h-569l-62 -191q-35 -109 -147 -108q-61 0 -107 41q-45 41 -45 88t14 82l412 1114q27 74 85 122t135 48z" />
    <glyph glyph-name="Acircumflex" unicode="&#xc2;" horiz-adv-x="1290" 
d="M956 1683q0 -49 -38 -90t-87 -41q-18 0 -106 37l-80 35l-80 -35q-88 -37 -106 -37q-49 0 -87 41t-38 90q0 90 94 125l217 88l217 -88q94 -39 94 -125zM647 1163l-194 -594h389l-191 594h-4zM650 1483q77 0 134 -46t84 -124l402 -1114q16 -43 16 -89t-42 -84t-99 -38
q-115 0 -150 106l-61 193h-569l-62 -191q-35 -109 -147 -108q-61 0 -107 41q-45 41 -45 88t14 82l412 1114q27 74 85 122t135 48z" />
    <glyph glyph-name="Atilde" unicode="&#xc3;" horiz-adv-x="1290" 
d="M784 1573q-37 -1 -124 25q-86 26 -108 26t-64 -26t-81 -27q-38 0 -70 34t-32 72q0 82 56 131q56 50 124 50t145 -26t97 -26q21 0 77 30t93 30t63 -34t25 -94q0 -60 -62 -113q-62 -52 -139 -52zM647 1163l-194 -594h389l-191 594h-4zM650 1483q77 0 134 -46t84 -124
l402 -1114q16 -43 16 -89t-42 -84t-99 -38q-115 0 -150 106l-61 193h-569l-62 -191q-35 -109 -147 -108q-61 0 -107 41q-45 41 -45 88t14 82l412 1114q27 74 85 122t135 48z" />
    <glyph glyph-name="Adieresis" unicode="&#xc4;" horiz-adv-x="1290" 
d="M272 1714q0 60 43 104t105 44t104 -43q43 -43 43 -105t-43 -104q-43 -43 -104 -43t-105 43q-43 43 -43 104zM723 1714q0 60 43 104t104 44q60 0 104 -43t44 -105t-43 -104q-43 -43 -105 -43t-104 43q-43 43 -43 104zM647 1163l-194 -594h389l-191 594h-4zM650 1483
q77 0 134 -46t84 -124l402 -1114q16 -43 16 -89t-42 -84t-99 -38q-115 0 -150 106l-61 193h-569l-62 -191q-35 -109 -147 -108q-61 0 -107 41q-45 41 -45 88t14 82l412 1114q27 74 85 122t135 48z" />
    <glyph glyph-name="Aring" unicode="&#xc5;" horiz-adv-x="1290" 
d="M553 1720q0 -40 27 -66q28 -26 66 -26t65 27t27 65t-27 66q-27 26 -66 26t-65 -26t-27 -66zM442 1720q0 84 60 144t143 59q84 0 143 -59q60 -60 60 -144t-60 -143t-143 -59t-143 59t-60 143zM647 1163l-194 -594h389l-191 594h-4zM650 1483q77 0 134 -46t84 -124
l402 -1114q16 -43 16 -89t-42 -84t-99 -38q-115 0 -150 106l-61 193h-569l-62 -191q-35 -109 -147 -108q-61 0 -107 41q-45 41 -45 88t14 82l412 1114q27 74 85 122t135 48z" />
    <glyph glyph-name="AE" unicode="&#xc6;" horiz-adv-x="1705" 
d="M850 532v594h-4l-324 -594h328zM1518 1458q70 0 108 -42t37 -99q0 -57 -39 -99t-106 -42h-361v-299h336q72 0 111 -42q38 -41 38 -99t-40 -100t-109 -42h-336v-311h379q70 0 108 -42q38 -41 38 -99t-40 -100q-39 -42 -106 -42h-528q-68 0 -113 43t-45 111v102h-469
l-96 -168q-57 -100 -146 -100q-61 0 -104 36q-82 69 -15 191l635 1174q37 70 144 69h719z" />
    <glyph glyph-name="Ccedilla" unicode="&#xc7;" horiz-adv-x="1251" 
d="M637 -311q68 -4 68 55q-1 59 -61 59q-49 0 -64 11t-15 35t45 83l35 50q-272 32 -441 242t-169 520t197 524q198 215 507 215q130 0 276 -46q73 -24 119 -72q46 -49 46 -109t-36 -100t-79 -40t-136 36t-190 36q-182 0 -283 -133q-102 -133 -102 -329t102 -326t283 -130
q95 0 195 43t131 43q61 0 98 -47t37 -103t-45 -105q-70 -78 -257 -111q-68 -13 -134 -13l-62 -81l46 6q66 0 110 -42t43 -124q0 -82 -71 -132t-156 -50q-184 0 -185 102q1 23 15 38t28 15t50 -9q35 -9 55 -11z" />
    <glyph glyph-name="Egrave" unicode="&#xc8;" horiz-adv-x="948" 
d="M727 1706q0 -55 -32 -102t-77 -48h-16q-4 0 -9 2t-9 2q-4 1 -11 4t-36 13l-230 90q-84 31 -84 121q0 45 34 86q34 40 69 40t86 -20l241 -98q74 -35 74 -90zM92 154v1126q0 80 41 129t119 49h508q70 0 108 -42t37 -99q0 -57 -39 -99t-106 -42h-361v-299h336q72 0 111 -42
q39 -41 39 -99t-40 -100t-110 -42h-336v-311h379q70 0 108 -42q38 -41 38 -99t-39 -100t-107 -42h-528q-68 0 -113 43t-45 111z" />
    <glyph glyph-name="Eacute" unicode="&#xc9;" horiz-adv-x="948" 
d="M727 1788q0 -90 -84 -121l-229 -90q-31 -9 -38 -13q-11 -8 -50 -8t-71 48t-32 100q0 53 58 84l258 106q51 20 85 20t69 -40q34 -41 34 -86zM92 154v1126q0 80 41 129t119 49h508q70 0 108 -42t37 -99q0 -57 -39 -99t-106 -42h-361v-299h336q72 0 111 -42q39 -41 39 -99
t-40 -100t-110 -42h-336v-311h379q70 0 108 -42q38 -41 38 -99t-39 -100t-107 -42h-528q-68 0 -113 43t-45 111z" />
    <glyph glyph-name="Ecircumflex" unicode="&#xca;" horiz-adv-x="948" 
d="M786 1683q0 -49 -38 -90t-86 -41q-18 0 -107 37l-80 35l-80 -35q-88 -37 -106 -37q-49 0 -87 41t-38 90q0 90 94 125l217 88l217 -88q94 -39 94 -125zM92 154v1126q0 80 41 129t119 49h508q70 0 108 -42t37 -99q0 -57 -39 -99t-106 -42h-361v-299h336q72 0 111 -42
q39 -41 39 -99t-40 -100t-110 -42h-336v-311h379q70 0 108 -42q38 -41 38 -99t-39 -100t-107 -42h-528q-68 0 -113 43t-45 111z" />
    <glyph glyph-name="Edieresis" unicode="&#xcb;" horiz-adv-x="948" 
d="M102 1714q0 60 43 104t105 44t104 -43q43 -43 43 -105t-43 -104q-43 -43 -104 -43t-105 43q-43 43 -43 104zM553 1714q0 60 43 104t104 44q60 0 104 -43t44 -105t-43 -104q-43 -43 -105 -43t-104 43q-43 43 -43 104zM92 154v1126q0 80 41 129t119 49h508q70 0 108 -42
t37 -99q0 -57 -39 -99t-106 -42h-361v-299h336q72 0 111 -42q39 -41 39 -99t-40 -100t-110 -42h-336v-311h379q70 0 108 -42q38 -41 38 -99t-39 -100t-107 -42h-528q-68 0 -113 43t-45 111z" />
    <glyph glyph-name="Igrave" unicode="&#xcc;" horiz-adv-x="491" 
d="M373 1556q-4 0 -9 2q-6 2 -10 2q-4 1 -11 5t-36 12l-229 90q-84 31 -84 121q0 45 34 86q34 40 68 40t86 -20l242 -98l16 -8q58 -31 58 -84t-32 -100t-77 -48h-16zM92 147v1164q0 75 43 117t111 42t110 -42t43 -117v-1164q0 -75 -43 -117q-42 -42 -110 -42t-111 42
t-43 117z" />
    <glyph glyph-name="Iacute" unicode="&#xcd;" horiz-adv-x="491" 
d="M498 1788q0 -90 -84 -121l-230 -90q-23 -7 -34 -12q-17 -9 -55 -9q-37 0 -69 48t-32 102q0 55 74 90l241 98q51 20 86 20t69 -40q34 -41 34 -86zM92 147v1164q0 75 43 117t111 42t110 -42t43 -117v-1164q0 -75 -43 -117q-42 -42 -110 -42t-111 42t-43 117z" />
    <glyph glyph-name="Icircumflex" unicode="&#xce;" horiz-adv-x="491" 
d="M557 1683q0 -49 -38 -90t-87 -41q-18 0 -106 37l-80 35l-80 -35q-88 -37 -107 -37q-49 0 -87 41t-38 90q1 90 95 125l217 88l217 -88q94 -39 94 -125zM92 147v1164q0 75 43 117t111 42t110 -42t43 -117v-1164q0 -75 -43 -117q-42 -42 -110 -42t-111 42t-43 117z" />
    <glyph glyph-name="Idieresis" unicode="&#xcf;" horiz-adv-x="491" 
d="M-127 1714q0 60 43 104t104 44q60 0 104 -43t44 -105t-43 -104q-43 -43 -105 -43t-104 43q-43 43 -43 104zM324 1714q0 60 43 104t104 44t104 -43t43 -105t-43 -104q-43 -43 -104 -43t-104 43t-43 104zM92 147v1164q0 75 43 117t111 42t110 -42t43 -117v-1164
q0 -75 -43 -117q-42 -42 -110 -42t-111 42t-43 117z" />
    <glyph glyph-name="Eth" unicode="&#xd0;" horiz-adv-x="1366" 
d="M399 1176v-320h168q61 0 95 -35t34 -82t-34 -82t-95 -34h-168v-340h207q190 0 288 123q97 124 97 324t-101 323t-304 123h-187zM92 154v469h-55q-61 1 -95 35t-34 81t34 82t95 35h55v444q0 70 44 114t114 44h340q340 0 530 -203t190 -535t-190 -526q-192 -194 -510 -194
h-356q-61 0 -112 37q-50 37 -50 117z" />
    <glyph glyph-name="Ntilde" unicode="&#xd1;" horiz-adv-x="1402" 
d="M842 1573q-37 -1 -124 25t-109 26q-23 0 -65 -26t-80 -27q-38 0 -70 34t-32 72q0 82 56 131q56 50 124 50t145 -26t97 -26t76 30t94 30q37 0 63 -34t25 -81q0 -74 -62 -126t-138 -52zM80 147v1164q0 75 43 117t110 42q31 0 70 -20t59 -47l650 -866h4v774q0 75 43 117
t111 42t110 -42q43 -42 43 -117v-1164q0 -75 -43 -117t-111 -42q-29 0 -69 20t-60 47l-649 856h-4v-764q0 -75 -43 -117t-111 -42q-69 0 -111 42t-42 117z" />
    <glyph glyph-name="Ograve" unicode="&#xd2;" horiz-adv-x="1478" 
d="M991 1704q0 -53 -32 -100t-76 -48h-17q-4 0 -9 2t-9 2q-4 2 -9 4t-38 13l-230 90q-84 31 -84 121q0 45 34 86q34 40 69 40t86 -20l242 -98l16 -8q57 -31 57 -84zM740 -25q-310 0 -508 216t-198 539t198 538t505 215t507 -219t200 -538t-197 -535t-507 -216zM739 258
q186 0 286 135q99 135 99 335t-101 336t-283 136t-284 -136t-102 -336t100 -335t285 -135z" />
    <glyph glyph-name="Oacute" unicode="&#xd3;" horiz-adv-x="1478" 
d="M991 1788q0 -90 -84 -121l-229 -90q-32 -9 -38 -13q-11 -8 -50 -8t-71 48t-32 100q0 53 58 84l258 106q51 20 86 20t69 -40q34 -41 33 -86zM740 -25q-310 0 -508 216t-198 539t198 538t505 215t507 -219t200 -538t-197 -535t-507 -216zM739 258q186 0 286 135
q99 135 99 335t-101 336t-283 136t-284 -136t-102 -336t100 -335t285 -135z" />
    <glyph glyph-name="Ocircumflex" unicode="&#xd4;" horiz-adv-x="1478" 
d="M926 1552q-18 0 -107 37l-80 35l-80 -35q-88 -37 -106 -37q-49 0 -87 41t-38 90q0 90 94 125l217 88l217 -88q94 -39 95 -125q0 -49 -38 -90t-87 -41zM740 -25q-310 0 -508 216t-198 539t198 538t505 215t507 -219t200 -538t-197 -535t-507 -216zM739 258q186 0 286 135
q99 135 99 335t-101 336t-283 136t-284 -136t-102 -336t100 -335t285 -135z" />
    <glyph glyph-name="Otilde" unicode="&#xd5;" horiz-adv-x="1478" 
d="M879 1573q-37 -1 -124 25t-109 26t-64 -26t-81 -27q-38 0 -70 34t-32 72q1 82 57 131q56 50 124 50t144 -26q77 -26 97 -26q21 0 77 30t93 30t63 -34t25 -81q0 -74 -62 -126t-138 -52zM740 -25q-310 0 -508 216t-198 539t198 538t505 215t507 -219t200 -538t-197 -535
t-507 -216zM739 258q186 0 286 135q99 135 99 335t-101 336t-283 136t-284 -136t-102 -336t100 -335t285 -135z" />
    <glyph glyph-name="Odieresis" unicode="&#xd6;" horiz-adv-x="1478" 
d="M367 1714q0 60 43 104t104 44t104 -43q44 -43 44 -105t-44 -104q-44 -43 -104 -43q-61 0 -104 43t-43 104zM817 1714q0 60 43 104q42 44 104 44t105 -43t43 -105t-43 -104q-43 -43 -104 -43t-105 43q-43 43 -43 104zM740 -25q-310 0 -508 216t-198 539t198 538t505 215
t507 -219t200 -538t-197 -535t-507 -216zM739 258q186 0 286 135q99 135 99 335t-101 336t-283 136t-284 -136t-102 -336t100 -335t285 -135z" />
    <glyph glyph-name="multiply" unicode="&#xd7;" horiz-adv-x="1228" 
d="M952 979q45 0 84 -37t39 -84t-39 -86l-254 -254l254 -254q39 -39 39 -84t-37 -84t-84 -39t-86 39l-254 254l-254 -254q-40 -39 -86 -39t-81 39q-39 39 -39 84t39 84l253 254l-253 254q-39 39 -39 86t39 84t83 37t84 -39l254 -254l254 254q39 39 84 39z" />
    <glyph glyph-name="Oslash" unicode="&#xd8;" horiz-adv-x="1478" 
d="M739 1200q-182 0 -283 -136t-102 -335q0 -135 43 -229l580 614q-92 86 -238 86zM35 729q0 324 197 539q198 215 507 215q268 0 443 -156l98 98q59 70 115 70q31 1 57 -21t27 -58q0 -36 -21 -60l-155 -160q141 -207 141 -467q0 -322 -197 -538t-508 -216q-268 0 -446 156
l-127 -129q-35 -39 -73 -39q-37 0 -65 28q-28 27 -28 61t29 67l143 145q-137 199 -137 465zM739 258q186 0 286 135q99 135 99 336q0 138 -45 234l-579 -617q88 -88 239 -88z" />
    <glyph glyph-name="Ugrave" unicode="&#xd9;" horiz-adv-x="1402" 
d="M954 1704q0 -53 -32 -100t-76 -48h-17q-4 0 -9 2t-9 2q-4 1 -9 3t-38 14l-229 90q-84 31 -84 121q0 45 33 86q34 40 69 40t86 -20l242 -98l16 -8q57 -31 57 -84zM80 580v731q0 75 43 117t111 42t110 -42q43 -42 43 -117v-715q0 -146 86 -242t226 -96t229 99q88 99 88 239
v715q0 75 43 117t111 42t110 -42q43 -42 43 -117v-731q0 -256 -182 -430q-183 -174 -441 -174t-439 172q-181 174 -181 432z" />
    <glyph glyph-name="Uacute" unicode="&#xda;" horiz-adv-x="1402" 
d="M482 1604q-32 48 -32 100q0 53 58 84l258 106q51 20 86 20t69 -40q34 -41 33 -86q0 -90 -84 -121l-229 -90q-32 -9 -38 -13q-11 -8 -50 -8t-71 48zM80 580v731q0 75 43 117t111 42t110 -42q43 -42 43 -117v-715q0 -146 86 -242t226 -96t229 99q88 99 88 239v715
q0 75 43 117t111 42t110 -42q43 -42 43 -117v-731q0 -256 -182 -430q-183 -174 -441 -174t-439 172q-181 174 -181 432z" />
    <glyph glyph-name="Ucircumflex" unicode="&#xdb;" horiz-adv-x="1402" 
d="M1014 1683q0 -49 -38 -90t-87 -41q-18 0 -107 37l-80 35l-79 -35q-88 -37 -107 -37q-49 0 -87 41t-38 90q0 90 94 125l217 88l218 -88q94 -39 94 -125zM80 580v731q0 75 43 117t111 42t110 -42q43 -42 43 -117v-715q0 -146 86 -242t226 -96t229 99q88 99 88 239v715
q0 75 43 117t111 42t110 -42q43 -42 43 -117v-731q0 -256 -182 -430q-183 -174 -441 -174t-439 172q-181 174 -181 432z" />
    <glyph glyph-name="Udieresis" unicode="&#xdc;" horiz-adv-x="1402" 
d="M330 1714q0 60 43 104t104 44t105 -43t43 -105q0 -62 -43 -104q-42 -43 -104 -43t-105 43t-43 104zM780 1714q0 60 43 104t105 44t104 -43q43 -43 43 -105t-43 -104q-43 -43 -104 -43t-105 43q-43 43 -43 104zM80 580v731q0 75 43 117t111 42t110 -42q43 -42 43 -117
v-715q0 -146 86 -242t226 -96t229 99q88 99 88 239v715q0 75 43 117t111 42t110 -42q43 -42 43 -117v-731q0 -256 -182 -430q-183 -174 -441 -174t-439 172q-181 174 -181 432z" />
    <glyph glyph-name="Yacute" unicode="&#xdd;" horiz-adv-x="1097" 
d="M801 1788q0 -90 -84 -121l-230 -90q-23 -7 -34 -12q-17 -9 -54 -9q-38 0 -70 48t-32 102q0 55 74 90l241 98q51 20 86 20t69 -40q34 -41 34 -86zM395 137v547l-387 545q-28 41 -28 97t42 100t116 44t116 -61l295 -428l295 428q42 61 116 61t116 -44t42 -100t-28 -97
l-388 -545v-547q0 -63 -38 -106t-115 -43q-76 0 -115 43t-39 106z" />
    <glyph glyph-name="Thorn" unicode="&#xde;" horiz-adv-x="1138" 
d="M92 147v1164q0 75 43 117t111 42t110 -42t43 -117v-58h215q228 0 376 -136t148 -354t-146 -351q-148 -133 -365 -133h-228v-132q0 -75 -43 -117q-42 -42 -110 -42t-111 42t-43 117zM399 983v-434h209q94 0 153 61q58 62 58 156t-58 156t-153 61h-209z" />
    <glyph glyph-name="germandbls" unicode="&#xdf;" horiz-adv-x="1138" 
d="M80 152v905q0 227 125 373t348 147q188 0 315 -118t127 -304q-1 -88 -35 -167t-104 -122q125 -38 190 -150t64 -251q0 -182 -127 -336t-321 -154q-88 0 -134 42q-45 41 -45 99t34 92q26 26 146 50q56 12 104 70t48 145q0 86 -36 138q-36 53 -86 69t-100 26
q-122 26 -122 129t85 129q36 11 72 25t60 55q24 42 25 106q0 64 -45 110t-117 47q-72 0 -113 -39t-52 -88t-11 -123v-905q0 -74 -41 -119t-107 -45q-67 0 -107 45t-40 119z" />
    <glyph glyph-name="agrave" unicode="&#xe0;" 
d="M731 1225h-16q-15 0 -26 6t-40 14l-229 90q-84 31 -84 121q0 45 34 86t68 41t86 -20l242 -99l16 -8q58 -31 58 -84t-32 -100t-77 -47zM336 544q0 -118 60 -208t171 -90t170 90t59 208t-58 209q-60 91 -171 91t-171 -91t-60 -209zM1092 909v-729q0 -143 -61 -175
q-32 -17 -87 -17q-104 0 -135 125q-115 -137 -281 -138q-209 0 -348 160t-139 405q0 246 142 410q141 164 335 164t291 -135q6 53 47 88t92 35q104 0 126 -70q18 -57 18 -123z" />
    <glyph glyph-name="aacute" unicode="&#xe1;" 
d="M737 1583q35 0 69 -41t34 -86q0 -90 -84 -121l-230 -90q-23 -7 -34 -12q-15 -8 -29 -8h-19q-44 0 -76 47t-32 102t74 90l241 99q51 20 86 20zM336 544q0 -118 60 -208t171 -90t170 90t59 208t-58 209q-60 91 -171 91t-171 -91t-60 -209zM1092 909v-729q0 -143 -61 -175
q-32 -17 -87 -17q-104 0 -135 125q-115 -137 -281 -138q-209 0 -348 160t-139 405q0 246 142 410q141 164 335 164t291 -135q6 53 47 88t92 35q104 0 126 -70q18 -57 18 -123z" />
    <glyph glyph-name="acircumflex" unicode="&#xe2;" 
d="M899 1352q0 -49 -38 -90t-87 -41q-18 0 -106 36l-80 35l-80 -35q-88 -37 -107 -36q-49 0 -87 41t-38 90q1 90 95 125l217 88l217 -88q94 -39 94 -125zM336 544q0 -118 60 -208t171 -90t170 90t59 208t-58 209q-60 91 -171 91t-171 -91t-60 -209zM1092 909v-729
q0 -143 -61 -175q-32 -17 -87 -17q-104 0 -135 125q-115 -137 -281 -138q-209 0 -348 160t-139 405q0 246 142 410q141 164 335 164t291 -135q6 53 47 88t92 35q104 0 126 -70q18 -57 18 -123z" />
    <glyph glyph-name="atilde" unicode="&#xe3;" 
d="M349 1239q-37 0 -69 34t-32 73q0 82 56 131t124 49t144 -26q78 -26 98 -26t76 30t93 30t63 -34t26 -94t-62 -113q-62 -52 -139 -52q-37 0 -124 26q-87 25 -109 25t-64 -26q-43 -26 -81 -27zM336 544q0 -118 60 -208t171 -90t170 90t59 208t-58 209q-60 91 -171 91
t-171 -91t-60 -209zM1092 909v-729q0 -143 -61 -175q-32 -17 -87 -17q-104 0 -135 125q-115 -137 -281 -138q-209 0 -348 160t-139 405q0 246 142 410q141 164 335 164t291 -135q6 53 47 88t92 35q104 0 126 -70q18 -57 18 -123z" />
    <glyph glyph-name="adieresis" unicode="&#xe4;" 
d="M215 1382q0 60 43 104t104 44q60 0 104 -43t44 -105t-43 -104q-43 -43 -105 -43t-104 43q-43 43 -43 104zM666 1382q0 60 43 104t104 44t105 -43t43 -105q0 -62 -43 -104q-42 -43 -104 -43t-105 43t-43 104zM336 544q0 -118 60 -208t171 -90t170 90t59 208t-58 209
q-60 91 -171 91t-171 -91t-60 -209zM1092 909v-729q0 -143 -61 -175q-32 -17 -87 -17q-104 0 -135 125q-115 -137 -281 -138q-209 0 -348 160t-139 405q0 246 142 410q141 164 335 164t291 -135q6 53 47 88t92 35q104 0 126 -70q18 -57 18 -123z" />
    <glyph glyph-name="aring" unicode="&#xe5;" 
d="M496 1389q0 -39 26 -66t66 -27t66 27t26 66t-27 65t-65 27q-38 -1 -66 -27q-26 -26 -26 -65zM385 1389q0 84 59 143q60 59 144 59t143 -59t59 -143q0 -83 -58 -143q-60 -60 -144 -60t-144 59q-59 60 -59 144zM336 544q0 -118 60 -208t171 -90t170 90t59 208t-58 209
q-60 91 -171 91t-171 -91t-60 -209zM1092 909v-729q0 -143 -61 -175q-32 -17 -87 -17q-104 0 -135 125q-115 -137 -281 -138q-209 0 -348 160t-139 405q0 246 142 410q141 164 335 164t291 -135q6 53 47 88t92 35q104 0 126 -70q18 -57 18 -123z" />
    <glyph glyph-name="ae" unicode="&#xe6;" horiz-adv-x="1857" 
d="M1310 868q-97 0 -161 -64t-74 -161h467q-12 101 -74 163t-158 62zM1708 446h-629q14 -104 93 -158q166 -114 380 5q109 59 148 59t76 -39t36 -88q0 -92 -156 -171t-327 -79q-170 0 -285 86q-27 -74 -110 -73q-125 0 -125 125h-4q-109 -137 -277 -138q-209 0 -348 160
t-139 405q0 246 142 410q143 164 335 164t295 -135h4q0 57 34 90t83 33q90 0 110 -82q100 94 259 94q213 0 373 -161t161 -375q0 -132 -129 -132zM336 544q0 -118 60 -208t171 -90t170 90t59 208t-58 209q-60 91 -171 91t-171 -91t-60 -209z" />
    <glyph glyph-name="ccedilla" unicode="&#xe7;" horiz-adv-x="948" 
d="M750 -264q0 -82 -71 -132t-157 -50q-184 0 -184 102q0 23 14 38t28 15t50 -9q35 -9 55 -11q68 -4 68 57q0 50 -35 55q-12 2 -26 2q-56 0 -67 14t-11 35t45 80l35 50q-203 30 -328 188t-125 381t150 393q151 170 378 170q113 0 198 -30t124 -67q39 -38 39 -89
q0 -50 -32 -96t-74 -46t-116 29t-124 29q-119 0 -184 -89q-64 -89 -64 -209t68 -210t180 -90q41 0 124 30t95 31q51 0 89 -38t38 -91q0 -90 -102 -140t-214 -58l-63 -84l45 6q66 0 110 -42t44 -124z" />
    <glyph glyph-name="egrave" unicode="&#xe8;" horiz-adv-x="1099" 
d="M694 1225h-16q-15 0 -26 6t-40 14l-229 90q-84 31 -84 121q0 45 34 86q35 41 69 41t85 -20l242 -99l16 -8q57 -31 57 -84t-31 -100q-32 -47 -77 -47zM552 868q-98 0 -163 -64q-64 -64 -74 -161h469q-12 101 -73 163t-159 62zM950 446h-628q14 -104 92 -158
q163 -113 381 5q111 59 149 59t74 -39q37 -39 37 -88q0 -92 -157 -171t-325 -79q-245 0 -399 160q-154 159 -154 399t151 410t378 170t379 -169t151 -367q0 -132 -129 -132z" />
    <glyph glyph-name="eacute" unicode="&#xe9;" horiz-adv-x="1099" 
d="M700 1583q35 0 69 -41t34 -86q0 -90 -84 -121l-230 -90q-23 -7 -34 -12q-15 -8 -29 -8h-18q-45 0 -77 47t-32 102t74 90l241 99q51 20 86 20zM552 868q-98 0 -163 -64q-64 -64 -74 -161h469q-12 101 -73 163t-159 62zM950 446h-628q14 -104 92 -158q163 -113 381 5
q111 59 149 59t74 -39q37 -39 37 -88q0 -92 -157 -171t-325 -79q-245 0 -399 160q-154 159 -154 399t151 410t378 170t379 -169t151 -367q0 -132 -129 -132z" />
    <glyph glyph-name="ecircumflex" unicode="&#xea;" horiz-adv-x="1099" 
d="M862 1352q0 -49 -38 -90t-87 -41q-18 0 -106 36l-80 35l-80 -35q-88 -37 -106 -36q-49 0 -87 41t-38 90q0 90 94 125l217 88l217 -88q94 -39 94 -125zM552 868q-98 0 -163 -64q-64 -64 -74 -161h469q-12 101 -73 163t-159 62zM950 446h-628q14 -104 92 -158
q163 -113 381 5q111 59 149 59t74 -39q37 -39 37 -88q0 -92 -157 -171t-325 -79q-245 0 -399 160q-154 159 -154 399t151 410t378 170t379 -169t151 -367q0 -132 -129 -132z" />
    <glyph glyph-name="edieresis" unicode="&#xeb;" horiz-adv-x="1099" 
d="M178 1382q0 60 43 104t105 44t104 -43q43 -43 43 -105t-43 -104q-43 -43 -104 -43t-105 43q-43 43 -43 104zM629 1382q0 60 43 104t104 44q60 0 104 -43t44 -105t-43 -104q-43 -43 -105 -43t-104 43q-43 43 -43 104zM552 868q-98 0 -163 -64q-64 -64 -74 -161h469
q-12 101 -73 163t-159 62zM950 446h-628q14 -104 92 -158q163 -113 381 5q111 59 149 59t74 -39q37 -39 37 -88q0 -92 -157 -171t-325 -79q-245 0 -399 160q-154 159 -154 399t151 410t378 170t379 -169t151 -367q0 -132 -129 -132z" />
    <glyph glyph-name="igrave" unicode="&#xec;" horiz-adv-x="454" 
d="M479 1372q0 -53 -32 -100t-76 -47h-17q-14 1 -23 5t-42 15l-230 90q-84 31 -84 121q0 45 34 86t69 41t86 -20l242 -99l16 -8q57 -31 57 -84zM80 152v786q0 74 41 119t107 45t106 -45q41 -45 41 -119v-786q0 -74 -41 -119t-107 -45q-67 0 -107 45t-40 119z" />
    <glyph glyph-name="iacute" unicode="&#xed;" horiz-adv-x="454" 
d="M377 1583q35 0 69 -41t33 -86q0 -90 -84 -121l-229 -90q-32 -9 -40 -15t-18 -5h-24q-45 0 -77 47t-32 100t58 84l258 107q51 20 86 20zM80 152v786q0 74 41 119t107 45t106 -45q41 -45 41 -119v-786q0 -74 -41 -119t-107 -45q-67 0 -107 45t-40 119z" />
    <glyph glyph-name="icircumflex" unicode="&#xee;" horiz-adv-x="454" 
d="M414 1221q-18 0 -107 36l-80 35l-80 -35q-88 -37 -106 -36q-49 0 -87 41t-38 90q0 90 94 125l217 88l217 -88q94 -39 95 -125q0 -49 -38 -90t-87 -41zM80 152v786q0 74 41 119t107 45t106 -45q41 -45 41 -119v-786q0 -74 -41 -119t-107 -45q-67 0 -107 45t-40 119z" />
    <glyph glyph-name="idieresis" unicode="&#xef;" horiz-adv-x="454" 
d="M-145 1382q0 60 43 104t104 44t104 -43q44 -43 44 -105t-44 -104q-44 -43 -104 -43q-61 0 -104 43t-43 104zM305 1382q0 60 43 104q42 44 104 44t105 -43t43 -105t-43 -104q-43 -43 -104 -43t-105 43q-43 43 -43 104zM80 152v786q0 74 41 119t107 45t106 -45
q41 -45 41 -119v-786q0 -74 -41 -119t-107 -45q-67 0 -107 45t-40 119z" />
    <glyph glyph-name="eth" unicode="&#xf0;" horiz-adv-x="1138" 
d="M570 809q-106 0 -170 -81q-64 -82 -64 -192t60 -200t173 -90t173 90t61 207q-3 111 -65 189t-168 77zM1098 584q0 -262 -146 -436t-382 -173q-234 0 -382 166q-147 165 -147 385t143 380t353 161q152 0 231 -88l4 4q-82 180 -229 268l-135 -71q-104 -56 -136 -56t-52 20
q-22 20 -21 58q1 39 41 68q12 8 39 20l102 53q-45 17 -65 27t-50 37q-29 27 -28 55q0 68 38 98q39 30 130 30t258 -97l163 88q43 23 73 23t52 -23t21 -53q1 -30 -17 -48q-18 -17 -65 -42l-107 -58q170 -160 242 -347t72 -449z" />
    <glyph glyph-name="ntilde" unicode="&#xf1;" horiz-adv-x="1138" 
d="M331 1239q-38 0 -70 34t-32 73q1 82 57 131t124 49t144 -26q77 -26 97 -26q21 0 77 30t93 30t63 -34t25 -81q0 -74 -62 -126t-138 -52q-37 0 -124 26q-87 25 -109 25t-64 -26t-81 -27zM84 152v786q0 74 41 119t106 45q119 0 136 -109q86 121 274 121t301 -106t113 -291
v-565q0 -74 -41 -119t-107 -45q-67 0 -107 45t-40 119v514q0 98 -54 150t-140 52t-137 -57q-50 -57 -50 -145v-514q0 -74 -41 -119t-107 -45q-67 0 -107 45t-40 119z" />
    <glyph glyph-name="ograve" unicode="&#xf2;" horiz-adv-x="1138" 
d="M821 1372q1 -53 -31 -100t-77 -47h-17q-14 1 -23 5t-42 15l-230 90q-84 31 -84 121q0 45 34 86t69 41t86 -20l242 -99l16 -8q57 -31 57 -84zM569 844q-113 0 -173 -91t-60 -209t60 -208t173 -90t173 90t60 208t-60 209t-173 91zM569 1114q227 0 378 -170t151 -404
t-148 -399q-148 -166 -380 -166q-234 0 -382 166q-147 165 -147 399t150 404q151 170 378 170z" />
    <glyph glyph-name="oacute" unicode="&#xf3;" horiz-adv-x="1138" 
d="M719 1583q35 0 69 -41t33 -86q0 -90 -84 -121l-229 -90q-32 -9 -40 -15t-18 -5h-24q-45 0 -77 47t-32 100t58 84l258 107q51 20 86 20zM569 844q-113 0 -173 -91t-60 -209t60 -208t173 -90t173 90t60 208t-60 209t-173 91zM569 1114q227 0 378 -170t151 -404t-148 -399
q-148 -166 -380 -166q-234 0 -382 166q-147 165 -147 399t150 404q151 170 378 170z" />
    <glyph glyph-name="ocircumflex" unicode="&#xf4;" horiz-adv-x="1138" 
d="M756 1221q-18 0 -107 36l-80 35l-80 -35q-88 -37 -106 -36q-49 0 -87 41t-38 90q0 90 94 125l217 88l217 -88q94 -39 95 -125q0 -49 -38 -90t-87 -41zM569 844q-113 0 -173 -91t-60 -209t60 -208t173 -90t173 90t60 208t-60 209t-173 91zM569 1114q227 0 378 -170
t151 -404t-148 -399q-148 -166 -380 -166q-234 0 -382 166q-147 165 -147 399t150 404q151 170 378 170z" />
    <glyph glyph-name="otilde" unicode="&#xf5;" horiz-adv-x="1138" 
d="M331 1239q-38 0 -70 34t-32 73q1 82 57 131t124 49t144 -26q77 -26 97 -26q21 0 77 30t93 30t63 -34t25 -81q0 -74 -62 -126t-138 -52q-37 0 -124 26q-87 25 -109 25t-64 -26t-81 -27zM569 844q-113 0 -173 -91t-60 -209t60 -208t173 -90t173 90t60 208t-60 209t-173 91z
M569 1114q227 0 378 -170t151 -404t-148 -399q-148 -166 -380 -166q-234 0 -382 166q-147 165 -147 399t150 404q151 170 378 170z" />
    <glyph glyph-name="odieresis" unicode="&#xf6;" horiz-adv-x="1138" 
d="M197 1382q0 60 43 104t104 44q60 0 104 -43t44 -105t-43 -104q-43 -43 -105 -43t-104 43q-43 43 -43 104zM647 1382q0 60 43 104q42 44 104 44t105 -43t43 -105t-43 -104q-43 -43 -104 -43t-105 43q-43 43 -43 104zM569 844q-113 0 -173 -91t-60 -209t60 -208t173 -90
t173 90t60 208t-60 209t-173 91zM569 1114q227 0 378 -170t151 -404t-148 -399q-148 -166 -380 -166q-234 0 -382 166q-147 165 -147 399t150 404q151 170 378 170z" />
    <glyph glyph-name="divide" unicode="&#xf7;" horiz-adv-x="1228" 
d="M455 942q0 66 47 113q46 47 112 47t113 -47t47 -113t-47 -113t-113 -47t-112 47t-47 113zM455 94q0 66 47 113q46 47 112 47t113 -47t47 -113t-47 -112t-113 -48q-66 0 -112 47t-47 113zM195 641h839q57 0 90 -34t33 -89t-33 -89t-90 -34h-839q-57 0 -91 34
q-33 34 -32 89q0 55 32 89q34 34 91 34z" />
    <glyph glyph-name="oslash" unicode="&#xf8;" horiz-adv-x="1138" 
d="M569 246q113 0 173 90t61 207q-1 57 -15 108l-346 -360q51 -45 127 -45zM41 543q0 231 150 401q151 170 378 170q184 0 326 -121l94 99q27 30 59 30t56 -24t24 -60q0 -35 -20 -55l-107 -111q96 -152 97 -329q0 -236 -148 -402t-381 -166q-188 0 -321 111l-103 -106
q-25 -25 -55 -25t-56 25q-24 26 -24 60t21 54l108 113q-98 145 -98 336zM569 844q-113 0 -173 -91t-60 -210q0 -60 18 -113l351 365q-53 49 -136 49z" />
    <glyph glyph-name="ugrave" unicode="&#xf9;" horiz-adv-x="1138" 
d="M821 1372q1 -53 -31 -100t-77 -47h-17q-14 1 -23 5t-42 15l-230 90q-84 31 -84 121q0 45 34 86t69 41t86 -20l242 -99l16 -8q57 -31 57 -84zM84 406v532q0 74 41 119t107 45t106 -45q41 -45 41 -119v-526q0 -88 56 -140t134 -51q78 0 134 51t57 140v526q0 74 41 119
t107 45t106 -45q41 -45 41 -119v-532q0 -199 -127 -315q-126 -116 -358 -116t-359 116t-127 315z" />
    <glyph glyph-name="uacute" unicode="&#xfa;" horiz-adv-x="1138" 
d="M719 1583q35 0 69 -41t33 -86q0 -90 -84 -121l-229 -90q-32 -9 -40 -15t-18 -5h-24q-45 0 -77 47t-32 100t58 84l258 107q51 20 86 20zM84 406v532q0 74 41 119t107 45t106 -45q41 -45 41 -119v-526q0 -88 56 -140t134 -51q78 0 134 51t57 140v526q0 74 41 119t107 45
t106 -45q41 -45 41 -119v-532q0 -199 -127 -315q-126 -116 -358 -116t-359 116t-127 315z" />
    <glyph glyph-name="ucircumflex" unicode="&#xfb;" horiz-adv-x="1138" 
d="M756 1221q-18 0 -107 36l-80 35l-80 -35q-88 -37 -106 -36q-49 0 -87 41t-38 90q0 90 94 125l217 88l217 -88q94 -39 95 -125q0 -49 -38 -90t-87 -41zM84 406v532q0 74 41 119t107 45t106 -45q41 -45 41 -119v-526q0 -88 56 -140t134 -51q78 0 134 51t57 140v526
q0 74 41 119t107 45t106 -45q41 -45 41 -119v-532q0 -199 -127 -315q-126 -116 -358 -116t-359 116t-127 315z" />
    <glyph glyph-name="udieresis" unicode="&#xfc;" horiz-adv-x="1138" 
d="M197 1382q0 60 43 104t104 44q60 0 104 -43t44 -105t-43 -104q-43 -43 -105 -43t-104 43q-43 43 -43 104zM647 1382q0 60 43 104q42 44 104 44t105 -43t43 -105t-43 -104q-43 -43 -104 -43t-105 43q-43 43 -43 104zM84 406v532q0 74 41 119t107 45t106 -45
q41 -45 41 -119v-526q0 -88 56 -140t134 -51q78 0 134 51t57 140v526q0 74 41 119t107 45t106 -45q41 -45 41 -119v-532q0 -199 -127 -315q-126 -116 -358 -116t-359 116t-127 315z" />
    <glyph glyph-name="yacute" unicode="&#xfd;" horiz-adv-x="985" 
d="M643 1583q35 0 69 -41t33 -86q0 -90 -83 -121l-230 -90q-23 -7 -34 -12q-15 -8 -29 -8h-19q-45 0 -77 47q-31 47 -31 100t57 84l258 107q51 20 86 20zM-4 983q0 45 45 82t94 37q109 0 148 -105l202 -555l217 555q39 104 148 105q49 0 94 -37t45 -86t-14 -80l-494 -1229
q-47 -117 -139 -116q-72 0 -113 38t-41 82q0 46 19 93l129 319l-326 813q-14 39 -14 84z" />
    <glyph glyph-name="thorn" unicode="&#xfe;" 
d="M379 538q0 -120 60 -206q61 -86 169 -86t170 92t62 208t-62 207t-171 91q-110 0 -169 -93t-59 -213zM84 -283v1696q0 74 41 119t107 45t106 -45q41 -45 41 -119v-434h4q37 63 112 99t154 36q213 0 349 -168t137 -387q1 -141 -53 -272t-166 -221t-266 -90t-271 102v-361
q0 -75 -41 -119t-107 -44q-67 0 -107 44t-40 119z" />
    <glyph glyph-name="ydieresis" unicode="&#xff;" horiz-adv-x="985" 
d="M121 1382q0 60 43 104t104 44q60 0 104 -43t44 -105t-43 -104q-43 -43 -105 -43t-104 43q-43 43 -43 104zM571 1382q0 60 43 104q42 44 104 44t105 -43t43 -105t-43 -104q-43 -43 -104 -43t-105 43q-43 43 -43 104zM-4 983q0 45 45 82t94 37q109 0 148 -105l202 -555
l217 555q39 104 148 105q49 0 94 -37t45 -86t-14 -80l-494 -1229q-47 -117 -139 -116q-72 0 -113 38t-41 82q0 46 19 93l129 319l-326 813q-14 39 -14 84z" />
    <glyph glyph-name="dotlessi" unicode="&#x131;" horiz-adv-x="454" 
d="M80 152v786q0 74 41 119t107 45t106 -45q41 -45 41 -119v-786q0 -74 -41 -119t-107 -45q-67 0 -107 45t-40 119z" />
    <glyph glyph-name="Lslash" unicode="&#x141;" horiz-adv-x="872" 
d="M92 168v324l-80 -62q-28 -20 -66 -20t-63 28t-24 78q1 49 47 88q16 14 61 47l125 94v566q0 75 43 117t111 42t110 -42t43 -117v-332l226 168q37 27 78 27t69 -27t29 -67q0 -40 -26 -68t-79 -66l-297 -217v-446h365q74 0 112 -45q38 -46 34 -102t-43 -96q-40 -40 -103 -40
h-512q-74 0 -117 45t-43 123z" />
    <glyph glyph-name="lslash" unicode="&#x142;" horiz-adv-x="454" 
d="M482 1155q42 0 65 -27q23 -28 23 -72t-44 -87l-151 -152v-665q0 -74 -41 -119t-107 -45q-67 0 -107 45t-40 119v380q-62 -61 -104 -61t-66 29q-24 30 -25 70q0 40 43 83l152 152v608q0 74 41 119t107 45t106 -45q41 -45 41 -119v-323q65 65 107 65z" />
    <glyph glyph-name="OE" unicode="&#x152;" horiz-adv-x="1972" 
d="M740 1200q-182 0 -284 -136t-102 -336t100 -335t285 -135q186 0 286 135q99 135 99 335t-101 336t-283 136zM1419 1176v-299h340q72 0 111 -42q39 -41 39 -99t-40 -100t-110 -42h-340v-311h383q70 0 108 -42q38 -41 38 -99t-39 -100t-107 -42h-569q-43 0 -65 18t-24 38
t-3 61h-4q-103 -141 -405 -141t-500 215q-198 216 -198 539t198 538t507 215q248 0 400 -154l4 4q0 80 28 103q29 23 119 22h494q70 0 108 -42t37 -99q0 -57 -39 -99t-106 -42h-365z" />
    <glyph glyph-name="oe" unicode="&#x153;" horiz-adv-x="1857" 
d="M336 544q0 -118 60 -208t173 -90t173 90t60 208t-60 209t-173 91t-173 -91t-60 -209zM1708 446h-629q14 -104 93 -158q166 -114 380 5q109 59 148 59t76 -39t36 -88q0 -92 -156 -171t-325 -79q-252 0 -391 170q-140 -170 -372 -170t-380 166q-147 165 -147 399t150 404
q151 170 372 170t387 -166q130 166 348 166t378 -161t161 -375q0 -132 -129 -132zM1310 868q-97 0 -161 -64t-76 -161h469q-12 101 -74 163t-158 62z" />
    <glyph glyph-name="Scaron" unicode="&#x160;" horiz-adv-x="1099" 
d="M240 1757q0 49 38 90t87 41q18 0 106 -37l80 -34l80 34q88 37 106 37q49 0 87 -41t38 -90q0 -86 -94 -125l-217 -88l-217 88q-94 35 -94 125zM954 1284q0 -68 -38 -112q-38 -46 -87 -46t-134 31t-153 31t-116 -36q-49 -36 -49 -95q1 -59 71 -94t170 -62t200 -69t172 -138
q71 -96 71 -243q0 -213 -153 -345t-371 -131q-149 0 -307 41q-85 23 -138 72q-53 50 -53 114t38 106t90 42t167 -40q116 -40 200 -40t140 49q55 49 55 121t-71 112t-171 66t-200 62q-100 37 -171 122t-71 216q1 209 149 337t350 128t330 -81q80 -50 80 -118z" />
    <glyph glyph-name="scaron" unicode="&#x161;" horiz-adv-x="872" 
d="M125 1425q0 49 38 91t87 40q18 0 106 -36l80 -35l80 35q88 37 107 36q49 0 87 -40t38 -91q0 -86 -95 -125l-217 -88l-217 88q-94 35 -94 125zM463 1114q183 0 299 -94q64 -50 63 -110t-35 -100t-71 -40t-131 43t-142 43q-106 0 -106 -82q0 -36 53 -66t128 -57t150 -63
t128 -105q53 -68 53 -161q0 -150 -116 -248t-304 -99q-137 0 -274 67t-138 161q0 41 36 86t90 45t144 -50t160 -50q68 0 94 20t26 60t-54 69q-53 29 -128 57q-76 28 -150 63q-74 37 -127 105t-54 162q0 154 112 249t294 95z" />
    <glyph glyph-name="Ydieresis" unicode="&#x178;" horiz-adv-x="1097" 
d="M176 1714q0 60 43 104t105 44t104 -43q43 -43 43 -105t-43 -104q-43 -43 -104 -43t-105 43q-43 43 -43 104zM627 1714q0 60 43 104t104 44q60 0 104 -43t44 -105t-43 -104q-43 -43 -105 -43t-104 43q-43 43 -43 104zM395 137v547l-387 545q-28 41 -28 97t42 100t116 44
t116 -61l295 -428l295 428q42 61 116 61t116 -44t42 -100t-28 -97l-388 -545v-547q0 -63 -38 -106t-115 -43q-76 0 -115 43t-39 106z" />
    <glyph glyph-name="Zcaron" unicode="&#x17d;" horiz-adv-x="1214" 
d="M297 1757q0 49 38 90t87 41q18 0 106 -37l80 -34l80 34q88 37 107 37q49 0 87 -41t38 -90q0 -86 -95 -125l-217 -88l-217 88q-94 35 -94 125zM1022 270q66 0 106 -36t41 -96q0 -60 -45 -99t-102 -39h-805q-80 0 -126 41t-46 104t41 121l659 922h-538q-63 0 -104 35
q-40 35 -40 94t42 100t102 41h749q84 0 128 -44t44 -110t-45 -124l-655 -910h594z" />
    <glyph glyph-name="zcaron" unicode="&#x17e;" horiz-adv-x="985" 
d="M182 1425q0 49 38 91t87 40q18 0 107 -36l80 -35l79 35q88 37 107 36q49 0 87 -40t38 -91q0 -86 -94 -125l-217 -88l-218 88q-94 35 -94 125zM170 831q-57 0 -95 35q-38 34 -38 94t38 95t95 35h670q48 0 71 -28q25 -28 25 -70t-31 -83l-465 -651h389q57 0 95 -35t39 -94
q0 -59 -38 -94t-96 -35h-686q-51 0 -86 26t-35 68t27 86l463 651h-342z" />
    <glyph glyph-name="florin" unicode="&#x192;" 
d="M823 866q144 0 144 -132q0 -66 -48 -96t-147 -30h-67l-130 -708q-29 -164 -109 -255t-239 -91q-199 0 -198 133q0 98 82 116q40 9 79 9q70 0 93 127l125 669h-52q-70 0 -104 36t-35 96q0 60 42 93q42 34 112 33h82l59 310q51 307 338 307q201 0 201 -140
q0 -119 -160 -118q-74 0 -94 -111l-45 -248h71z" />
    <glyph glyph-name="circumflex" unicode="&#x2c6;" horiz-adv-x="454" 
d="M414 1221q-18 0 -107 36l-80 35l-80 -35q-88 -37 -106 -36q-49 0 -87 41t-38 90q0 90 94 125l217 88l217 -88q94 -39 95 -125q0 -49 -38 -90t-87 -41z" />
    <glyph glyph-name="caron" unicode="&#x2c7;" horiz-adv-x="454" 
d="M-84 1425q0 49 38 91t87 40q18 0 106 -36l80 -35l80 35q88 37 107 36q49 0 87 -40t38 -91q0 -86 -95 -125l-217 -88l-217 88q-94 35 -94 125z" />
    <glyph glyph-name="uni02C9" unicode="&#x2c9;" horiz-adv-x="454" 
d="M37 1495h381q59 0 96 -33t37 -91t-37 -90t-96 -32h-381q-59 0 -96 32t-37 90t37 91t96 33z" />
    <glyph glyph-name="breve" unicode="&#x2d8;" horiz-adv-x="454" 
d="M-90 1436q0 49 22 86q23 37 68 37t74 -22q29 -23 41 -49t41 -48q28 -22 68 -21q70 0 108 70q14 27 45 49t72 21q41 0 69 -40t27 -83q1 -100 -103 -156t-217 -57q-113 1 -214 55t-101 158z" />
    <glyph glyph-name="dotaccent" unicode="&#x2d9;" horiz-adv-x="454" 
d="M80 1382q0 60 43 104t104 44t105 -43t43 -105q0 -62 -43 -104q-42 -43 -104 -43t-105 43t-43 104z" />
    <glyph glyph-name="ring" unicode="&#x2da;" horiz-adv-x="454" 
d="M135 1389q0 -39 27 -66q28 -27 66 -27t65 27t26 66t-27 65t-65 27q-39 -1 -65 -27t-27 -65zM25 1389q0 84 59 143t143 59q83 0 143 -59t60 -143q0 -83 -59 -143t-143 -60t-144 60q-59 60 -59 143z" />
    <glyph glyph-name="ogonek" unicode="&#x2db;" horiz-adv-x="454" 
d="M414 -342q0 -45 -60 -75q-60 -29 -144 -29q-83 0 -135 46t-52 129q-1 83 73 161t154 110h141q-61 -31 -117 -99q-55 -69 -55 -132q0 -80 72 -80l80 14q43 0 43 -45z" />
    <glyph glyph-name="tilde" unicode="&#x2dc;" horiz-adv-x="454" 
d="M-11 1239q-38 0 -70 34t-32 73q1 82 57 131t124 49t144 -26q77 -26 97 -26q21 0 77 30t93 30t63 -34t25 -81q0 -74 -62 -126t-138 -52q-37 0 -124 26q-87 25 -109 25t-64 -26t-81 -27z" />
    <glyph glyph-name="hungarumlaut" unicode="&#x2dd;" horiz-adv-x="454" 
d="M661 1583q35 0 69 -41t34 -86q0 -90 -84 -121l-229 -90q-31 -9 -38 -13q-10 -6 -26 -7h-18q-45 0 -77 47t-32 102t74 90l241 99q51 20 86 20zM92 1583q35 0 69 -41t34 -86q0 -90 -84 -121l-230 -90q-23 -7 -34 -12q-15 -8 -29 -8h-19q-45 0 -77 47t-32 100t58 84l258 107
q51 20 86 20z" />
    <glyph glyph-name="uni03A9" unicode="&#x3a9;" horiz-adv-x="1484" 
d="M354 231v7q-106 98 -178 244t-72 327q0 276 180 471t464 195q147 1 270 -59q228 -110 317 -364q41 -114 41 -229q0 -182 -74 -335t-182 -250v-7h285v-231h-565v170q106 70 176 216t70 362t-91 352q-90 137 -249 137q-158 0 -254 -136t-96 -349t70 -367q71 -154 175 -215
v-170h-567v231h280z" />
    <glyph glyph-name="uni03BC" unicode="&#x3bc;" horiz-adv-x="1138" 
d="M84 -283v1221q0 74 41 119t107 45t106 -45q41 -45 41 -119v-526q0 -88 56 -140t134 -51q78 0 134 51t57 140v526q0 74 41 119t107 45t106 -45q41 -45 41 -119v-786q0 -74 -41 -119t-107 -45q-67 0 -107 39t-40 102h-4q-31 -78 -84 -116q-52 -38 -102 -38t-104 30t-83 73
h-4v-361q0 -75 -41 -119t-107 -44q-67 0 -107 44t-40 119z" />
    <glyph glyph-name="pi" unicode="&#x3c0;" horiz-adv-x="1275" 
d="M1081 852v-541q0 -193 29 -311h-279q-37 61 -36 299v553h-273q-8 -195 -44 -449t-87 -403h-278q51 178 87 429t40 423q-137 0 -201 -21l-33 189q92 74 352 74h889l-20 -242h-146z" />
    <glyph glyph-name="uni2010" unicode="&#x2010;" horiz-adv-x="796" 
d="M733 592q0 -53 -31 -88t-86 -39h-436q-55 4 -86 39t-31 88q0 121 117 131h436q117 -10 117 -131z" />
    <glyph glyph-name="endash" unicode="&#x2013;" horiz-adv-x="1024" 
d="M123 717h778q57 0 90 -34t33 -89t-33 -89t-90 -34h-778q-57 0 -90 34t-33 89t33 89t90 34z" />
    <glyph glyph-name="emdash" unicode="&#x2014;" horiz-adv-x="2048" 
d="M0 717h2048q57 0 90 -34t33 -89t-33 -89t-90 -34h-2048q-57 0 -90 34t-33 89t33 89t90 34z" />
    <glyph glyph-name="quoteleft" unicode="&#x2018;" horiz-adv-x="491" 
d="M144 889q-42 0 -84 40t-42 82t25 95l170 307q37 67 132 69q42 0 85 -39q43 -40 43 -95q0 -25 -27 -82l-172 -308q-16 -33 -52 -51t-78 -18z" />
    <glyph glyph-name="quoteright" unicode="&#x2019;" horiz-adv-x="491" 
d="M144 889q-42 0 -84 40t-42 82t25 95l170 307q37 67 132 69q42 0 85 -39q43 -40 43 -95q0 -25 -27 -82l-172 -308q-16 -33 -52 -51t-78 -18z" />
    <glyph glyph-name="quotesinglbase" unicode="&#x201a;" horiz-adv-x="491" 
d="M144 -274q-42 0 -84 40t-42 82t25 95l170 307q38 69 132 69q42 1 85 -39t43 -96q0 -25 -27 -82l-172 -307q-16 -33 -52 -51t-78 -18z" />
    <glyph glyph-name="quotedblleft" unicode="&#x201c;" horiz-adv-x="909" 
d="M144 889q-42 0 -84 40t-42 82t25 95l170 307q37 67 132 69q42 0 85 -39q43 -40 43 -95q0 -25 -27 -82l-172 -308q-16 -33 -52 -51t-78 -18zM562 889q-42 0 -84 40t-42 82t25 95l170 307q37 67 132 69q42 0 85 -39q43 -40 43 -95q0 -25 -27 -82l-172 -308q-16 -33 -52 -51
t-78 -18z" />
    <glyph glyph-name="quotedblright" unicode="&#x201d;" horiz-adv-x="909" 
d="M144 889q-42 0 -84 40t-42 82t25 95l170 307q37 67 132 69q42 0 85 -39q43 -40 43 -95q0 -25 -27 -82l-172 -308q-16 -33 -52 -51t-78 -18zM562 889q-42 0 -84 40t-42 82t25 95l170 307q37 67 132 69q42 0 85 -39q43 -40 43 -95q0 -25 -27 -82l-172 -308q-16 -33 -52 -51
t-78 -18z" />
    <glyph glyph-name="quotedblbase" unicode="&#x201e;" horiz-adv-x="909" 
d="M144 -274q-42 0 -84 40t-42 82t25 95l170 307q38 69 132 69q42 1 85 -39t43 -96q0 -25 -27 -82l-172 -307q-16 -33 -52 -51t-78 -18zM562 -274q-42 0 -84 40t-42 82t25 95l170 307q38 69 132 69q42 1 85 -39t43 -96q0 -25 -27 -82l-172 -307q-16 -33 -52 -51t-78 -18z
" />
    <glyph glyph-name="dagger" unicode="&#x2020;" horiz-adv-x="1290" 
d="M504 -305v1075h-336q-53 0 -85 34t-32 95t32 95t85 34h336v313q0 68 38 105t104 37t103 -37q38 -37 37 -105v-313h336q53 0 85 -34t32 -95t-32 -95t-85 -34h-336v-1075q0 -68 -38 -105q-38 -36 -103 -36t-103 36t-38 105z" />
    <glyph glyph-name="daggerdbl" unicode="&#x2021;" horiz-adv-x="1290" 
d="M504 -305v317h-336q-53 0 -85 34t-32 95t32 95t85 34h336v500h-336q-53 0 -85 34t-32 95t32 95t85 34h336v313q0 68 38 105t104 37t103 -37q38 -37 37 -105v-313h336q53 0 85 -34t32 -95t-32 -95t-85 -34h-336v-500h336q53 0 85 -34t32 -94q0 -62 -32 -96t-85 -34h-336
v-317q0 -68 -38 -105q-38 -36 -103 -36t-103 36t-38 105z" />
    <glyph glyph-name="bullet" unicode="&#x2022;" horiz-adv-x="1024" 
d="M147 729q1 152 107 258q106 107 258 107t258 -106t106 -259q0 -152 -106 -258t-258 -106t-258 106t-107 258z" />
    <glyph glyph-name="ellipsis" unicode="&#x2026;" horiz-adv-x="2048" 
d="M1546 135q0 66 47 113t113 47t113 -47t47 -113q0 -67 -47 -113t-113 -46t-113 46q-47 47 -47 113zM864 135q0 66 47 113t113 47t113 -47t47 -113q0 -67 -47 -113t-113 -46t-113 46q-47 47 -47 113zM182 135q0 66 47 113t113 47t113 -47t47 -113q0 -67 -47 -113t-113 -46
t-113 46q-47 47 -47 113z" />
    <glyph glyph-name="perthousand" unicode="&#x2030;" horiz-adv-x="2199" 
d="M1084 1495q42 0 78 -34t36 -73t-16 -69l-688 -1288q-2 -3 -10 -13t-9 -13q-2 -3 -8 -10t-11 -15t-13 -9q-7 -2 -13 -4q-55 -18 -100 23t-45 81t20 81l678 1278q19 39 39 52t62 13zM1100 184q49 0 78 35t28 86q0 51 -28 87q-29 36 -78 36t-78 -36t-29 -87t29 -86t78 -35z
M1100 -25q-136 -1 -226 97t-90 233t90 233t226 99q136 0 225 -98q90 -97 90 -233t-90 -234t-225 -97zM379 821q-135 -1 -225 97t-91 233q1 135 91 233t225 98t225 -98t90 -233t-90 -233t-225 -97zM379 1030q49 0 78 35t28 86q0 51 -28 87q-29 36 -78 36t-78 -36t-29 -87
t29 -86t78 -35zM1821 184q49 0 77 35t29 86q0 51 -29 87q-30 36 -78 36t-77 -36t-29 -87t29 -86t78 -35zM1821 -25q-135 -1 -225 97t-91 233q0 135 90 233q89 98 225 99q136 0 226 -98q90 -97 90 -233t-90 -234t-225 -97z" />
    <glyph glyph-name="guilsinglleft" unicode="&#x2039;" horiz-adv-x="606" 
d="M402 133q-62 0 -97 51l-211 326q-18 27 -18 73t49 115l199 281q31 35 86 35t88 -33q32 -33 32 -80t-22 -78l-162 -248l162 -243q22 -33 22 -79t-34 -83q-32 -37 -94 -37z" />
    <glyph glyph-name="guilsinglright" unicode="&#x203a;" horiz-adv-x="606" 
d="M206 1014q62 0 95 -51l211 -326q18 -27 18 -73t-49 -115l-198 -281q-31 -35 -86 -35t-88 33t-33 80q-1 47 22 78l162 247l-162 244q-22 33 -22 79t34 83t96 37z" />
    <glyph glyph-name="fraction" unicode="&#x2044;" horiz-adv-x="339" 
d="M513 1495q42 0 78 -34t36 -73t-17 -69l-688 -1288q-2 -3 -9 -13t-19 -27t-20 -20q-9 -2 -18 -5t-38 -3t-67 34q-64 58 -17 155l678 1278q20 39 40 52t61 13z" />
    <glyph glyph-name="Euro" unicode="&#x20ac;" 
d="M805 1227q-252 0 -297 -250h504l-66 -191h-461q-2 -16 -2 -60t2 -60h416l-65 -191h-326q43 -246 297 -246q178 0 272 86v-270q-90 -68 -321 -68q-473 0 -553 498h-170l67 191h82q-2 16 -2 59t2 61h-149l67 191h101q84 504 555 504q212 0 321 -74v-270q-90 90 -274 90z
" />
    <glyph glyph-name="afii61289" unicode="&#x2113;" horiz-adv-x="1091" 
d="M496 1069v-301q231 262 231 465q0 164 -106 164q-53 0 -89 -76t-36 -252zM219 1061q0 266 108 402q109 136 269 136t236 -105t75 -271q0 -324 -411 -713l2 -90q2 -98 51 -154t127 -55q145 0 264 188l115 -120q-154 -297 -447 -297q-178 0 -271 93t-112 240q-2 8 -2 23
q-12 -8 -49 -38t-57 -44l-70 150l172 143v512z" />
    <glyph glyph-name="trademark" unicode="&#x2122;" horiz-adv-x="2048" 
d="M958 737v606q0 127 175 127q67 0 107 -24t75 -103l145 -372l146 372q35 80 75 104q41 24 107 23q174 0 174 -127v-606q0 -59 -25 -91t-86 -32t-86 32t-24 91v426h-4l-148 -426q-16 -43 -26 -65t-37 -39q-27 -19 -75 -19t-73 29t-47 94l-147 426h-4v-426q0 -59 -25 -91
t-86 -32t-86 32t-25 91zM340 737v537h-162q-40 0 -66 24t-26 68q0 45 26 69t66 23h570q40 0 66 -24t26 -68q0 -45 -26 -69t-66 -23h-162v-537q0 -55 -33 -89t-90 -34t-90 34t-33 89z" />
    <glyph glyph-name="Omega" unicode="&#x2126;" horiz-adv-x="1484" 
d="M354 231v7q-106 98 -178 244t-72 327q0 276 180 471t464 195q147 1 270 -59q228 -110 317 -364q41 -114 41 -229q0 -182 -74 -335t-182 -250v-7h285v-231h-565v170q106 70 176 216t70 362t-91 352q-90 137 -249 137q-158 0 -254 -136t-96 -349t70 -367q71 -154 175 -215
v-170h-567v231h280z" />
    <glyph glyph-name="estimated" unicode="&#x212e;" horiz-adv-x="1816" 
d="M1438 762v412q0 29 -21 49q-219 215 -509 215t-511 -221q-18 -20 -18 -52v-403q0 -14 10 -14h1038q11 0 11 14zM1745 709h-1356q-10 0 -10 -11v-409q0 -25 16 -47q219 -223 514 -224q158 0 298 67t241 183h121q-115 -135 -289 -213t-373 -78q-348 1 -593 221t-244 531
q0 311 245 533q246 221 592 221t592 -221t246 -533v-20z" />
    <glyph glyph-name="partialdiff" unicode="&#x2202;" horiz-adv-x="1216" 
d="M547 221h2q104 0 175 127t87 285q-17 57 -77 111t-152 54t-158 -98t-66 -216t54 -191q54 -72 135 -72zM1116 840q0 -386 -160 -620t-438 -234q-141 0 -246 80q-104 80 -150 190t-46 225q0 246 130 397t324 150q113 0 192 -53t112 -109h2q2 14 2 64q0 193 -96 336
t-252 143q-154 0 -273 -100l-80 213q165 120 403 120t407 -208t169 -594z" />
    <glyph glyph-name="uni2206" unicode="&#x2206;" horiz-adv-x="1382" 
d="M350 229h668l-215 580q-14 53 -59 188q-44 135 -56 181h-6q-8 -37 -49 -159t-55 -179zM53 0v164l473 1319h342l457 -1315v-168h-1272z" />
    <glyph glyph-name="product" unicode="&#x220f;" horiz-adv-x="1521" 
d="M1468 1194h-211v-1395h-282v1395h-430v-1395h-283v1395h-213v258h1419v-258z" />
    <glyph glyph-name="summation" unicode="&#x2211;" horiz-adv-x="1173" 
d="M1135 -201h-1088v181l498 647l-479 626v199h1034v-242h-651v-6l415 -530l-463 -604v-9h734v-262z" />
    <glyph glyph-name="minus" unicode="&#x2212;" horiz-adv-x="1228" 
d="M195 641h839q57 0 90 -34t33 -89t-33 -89t-90 -34h-839q-57 0 -91 34q-33 34 -32 89q0 55 32 89q34 34 91 34z" />
    <glyph glyph-name="uni2215" unicode="&#x2215;" horiz-adv-x="339" 
d="M513 1495q42 0 78 -34t36 -73t-17 -69l-688 -1288q-2 -3 -9 -13t-19 -27t-20 -20q-9 -2 -18 -5t-38 -3t-67 34q-64 58 -17 155l678 1278q20 39 40 52t61 13z" />
    <glyph glyph-name="uni2219" unicode="&#x2219;" horiz-adv-x="548" 
d="M274 735q66 0 113 -47t47 -114q0 -66 -47 -112t-113 -46t-112 47t-47 113q1 66 47 112q46 47 112 47z" />
    <glyph glyph-name="radical" unicode="&#x221a;" horiz-adv-x="1251" 
d="M1274 1745l-473 -2034h-228l-307 901l-155 -61l-45 156l368 151l211 -643q23 -104 43 -184l2 -2q19 130 35 200l350 1516h199z" />
    <glyph glyph-name="infinity" unicode="&#x221e;" horiz-adv-x="1626" 
d="M1184 801h-2q-60 -1 -93 -23t-58 -39t-69 -71q-43 -55 -61 -72q95 -121 155 -166t137 -45q77 -1 126 63t49 148t-51 144t-133 61zM451 385h2q76 0 139 51t139 146q-45 61 -64 86q-99 131 -218 132q-91 0 -142 -60t-51 -149t55 -148q56 -58 140 -58zM1526 600v-2
q0 -166 -100 -266t-238 -101q-96 1 -186 53t-187 183q-90 -115 -179 -175t-215 -60t-224 100q-99 100 -99 258t100 259t251 101q111 0 199 -57t175 -172q104 119 158 158q100 74 217 71q140 0 234 -97t94 -253z" />
    <glyph glyph-name="integral" unicode="&#x222b;" horiz-adv-x="839" 
d="M690 1599q-68 0 -104 -55q-53 -68 -54 -344q0 -166 16 -480t15 -509q0 -437 -192 -537q-76 -39 -167 -39t-161 35l35 201q127 -50 181 22q54 71 54 291t-15 544t-15 503q0 180 28 290q29 110 99 181q90 98 252 98q82 1 131 -24l-27 -195q-37 18 -76 18z" />
    <glyph glyph-name="approxequal" unicode="&#x2248;" horiz-adv-x="1148" 
d="M780 244q-92 0 -231 82q-111 72 -166 72q-91 -1 -153 -76q-19 -25 -54 -76l-100 94q47 94 130 154t167 61q84 -1 122 -19q94 -46 106 -53q112 -77 174 -78q62 -2 103 34q40 36 91 114l98 -92q-115 -217 -287 -217zM780 639q-100 0 -221 76t-176 76q-88 0 -153 -75
q-19 -24 -54 -75l-100 92q47 97 130 157t177 60q46 0 72 -8t46 -13t38 -16q18 -12 40 -25q23 -12 27 -16t51 -31t73 -35q26 -7 66 -7q77 0 173 149l98 -92q-115 -217 -287 -217z" />
    <glyph glyph-name="notequal" unicode="&#x2260;" horiz-adv-x="1148" 
d="M1049 891v-162h-340l-121 -278h461v-164h-523l-102 -236l-129 53l82 183h-279v164h340l121 278h-461v162h523l100 231l129 -51l-80 -180h279z" />
    <glyph glyph-name="lessequal" unicode="&#x2264;" horiz-adv-x="1148" 
d="M1051 -33h-949v166h949v-166zM1042 209l-931 463v178l931 463v-189l-772 -360v-4l772 -363v-188z" />
    <glyph glyph-name="greaterequal" unicode="&#x2265;" horiz-adv-x="1148" 
d="M1047 -33h-943v166h943v-166zM113 1313l934 -465v-176l-932 -463v188l770 363v4l-772 360v189z" />
    <glyph glyph-name="lozenge" unicode="&#x25ca;" horiz-adv-x="1251" 
d="M897 719l-227 481q-31 72 -39 125h-8q-8 -35 -39 -125l-232 -469l232 -489q23 -61 34 -119h11q16 72 35 115zM1149 725l-416 -829h-227l-404 829l414 829h227z" />
    <glyph glyph-name="fi" unicode="&#xfb01;" horiz-adv-x="1062" 
d="M836 1544q66 0 116 -49t49 -116q0 -67 -48 -117q-47 -50 -115 -50t-118 52t-50 116t50 114t116 50zM688 152v786q0 74 41 119t107 45t106 -45t41 -119v-786q0 -74 -41 -119q-40 -45 -106 -45t-107 45t-41 119zM152 152v679h-66q-59 0 -94 35q-35 34 -35 92t37 95t92 37
h66v151q0 160 85 248t224 88q72 0 126 -32t54 -101q0 -125 -109 -125q-40 0 -62 -15t-24 -94v-120h72q143 0 144 -129q0 -94 -35 -111t-109 -19h-72v-679q0 -74 -40 -119t-107 -45t-107 45t-40 119z" />
    <glyph glyph-name="fl" unicode="&#xfb02;" horiz-adv-x="1062" 
d="M688 152v1261q0 74 41 119t107 45t106 -45t41 -119v-1261q0 -74 -41 -119q-40 -45 -106 -45t-107 45t-41 119zM152 152v679h-66q-59 0 -94 35q-35 34 -35 92t37 95t92 37h66v151q0 160 85 248t224 88q72 0 126 -32t54 -101q0 -125 -109 -125q-40 0 -62 -15t-24 -94v-120
h72q143 0 144 -129q0 -94 -35 -111t-109 -19h-72v-679q0 -74 -40 -119t-107 -45t-107 45t-40 119z" />
    <glyph glyph-name="a.superior" horiz-adv-x="763" 
d="M370 961q70 0 106 54t36 127t-36 127t-106 54t-109 -55q-38 -55 -38 -127t38 -126t109 -54zM709 1372v-481q0 -90 -91 -90q-84 0 -92 80q-76 -80 -168 -80q-145 0 -238 95q-93 94 -93 242t92 246t219 98t188 -79q8 80 92 80q91 0 91 -111z" />
    <glyph glyph-name="o.superior" horiz-adv-x="739" 
d="M370 961q70 0 108 55t38 126t-37 126t-109 55t-109 -55q-38 -55 -38 -126t39 -126t108 -55zM371 1483q147 1 244 -101t97 -242t-96 -240t-246 -99q-150 0 -247 99q-96 100 -96 240q1 140 99 242t245 101z" />
    <glyph glyph-name="one.superior" horiz-adv-x="491" 
d="M180 674v588h-69q-90 0 -91 106q0 47 25 75t66 27h190q41 0 65 -24t23 -62v-710q0 -39 -29 -65q-30 -25 -76 -25t-75 24t-29 66z" />
    <glyph glyph-name="two.superior" horiz-adv-x="763" 
d="M366 1298q-46 0 -74 -28t-33 -64t-28 -64t-67 -28q-96 0 -96 115q0 82 88 168t219 86t216 -70t85 -184q0 -139 -180 -328q-82 -86 -90 -96h208q90 -1 90 -105t-90 -104h-458q-41 0 -69 20t-28 56t31 65q35 39 146 153q231 237 231 324q-1 85 -101 84z" />
    <glyph glyph-name="three.superior" horiz-adv-x="763" 
d="M274 1063q0 21 16 39t32 24t47 14t47 13q16 7 31 27t16 51q0 68 -90 67q-55 0 -107 -52t-95 -52q-42 0 -66 27t-23 63q0 82 100 140t202 59q104 1 190 -61t85 -172q0 -110 -112 -179q74 -31 119 -90t45 -131q1 -129 -101 -198q-102 -68 -226 -68t-227 64t-104 163
q0 35 33 59t70 23q36 0 60 -31q24 -30 58 -62t94 -32q58 0 96 28t38 66q0 88 -113 105l-34 6q-15 0 -25 5t-27 12t-20 21q-4 13 -7 22q-2 9 -2 30z" />
    </font>
</defs>
</svg>
