<?xml version="1.0" standalone="no"?>
<!DOCTYPE svg PUBLIC "-//W3C//DTD SVG 1.1//EN" "http://www.w3.org/Graphics/SVG/1.1/DTD/svg11.dtd" >
<svg xmlns="http://www.w3.org/2000/svg">
<metadata>
Created by FontPrep 20130207 at Sun Jul  6 13:39:56 2014
 By Michael Ball
(c) 1989, 1995, 2001 Adobe Systems Incorporated. All rights reserved.
</metadata>
<defs>
<font id="1aece233ba5c0b0f2fa745e394cb9f02" horiz-adv-x='1024' >
  <font-face 
    font-family="VAGRoundedStd-Light"
    font-weight="300"
    font-stretch="normal"
    units-per-em="2048"
    panose-1="2 15 5 2 2 2 4 2 2 4"
    ascent="1577"
    descent="-471"
    x-height="1090"
    cap-height="1470"
    bbox="-244 -600 2144 1888"
    underline-thickness="102"
    underline-position="-102"
    unicode-range="U+0020-FB02"
  />
<missing-glyph horiz-adv-x="1024" 
d="M102 1239v-1044l349 522zM164 102h696l-348 523zM573 717l349 -522v1044zM512 809l348 522h-696zM0 0v1434h1024v-1434h-1024z" />
    <glyph glyph-name="f_i" unicode="fi" horiz-adv-x="948" 
d="M356 934v-850q0 -45 -24 -71q-24 -25 -66 -25t-66 26t-24 70v850h-74q-90 0 -90 78t90 78h74v256q0 113 68 174t172 61h55q39 1 71 -21t31 -57q0 -78 -98 -78h-45q-74 0 -74 -71v-264h113q90 0 90 -78t-90 -78h-113zM629 1360q0 45 31 78q32 32 79 32t79 -32t32 -78
q0 -45 -32 -78t-79 -33t-79 33q-31 33 -31 78zM829 1006v-922q-1 -45 -25 -71q-24 -25 -65 -25t-65 26t-25 70v922q0 44 25 70q26 26 66 26t64 -26t25 -70z" />
    <glyph glyph-name="f_l" unicode="fl" horiz-adv-x="948" 
d="M829 1485v-1401q-1 -45 -25 -71q-24 -25 -65 -25t-65 26t-25 70v1401q0 45 25 71q26 26 66 25q40 1 64 -25t25 -71zM356 934v-850q0 -45 -24 -71q-24 -25 -66 -25t-66 26t-24 70v850h-74q-90 0 -90 78t90 78h74v256q0 113 68 174t172 61h55q39 1 71 -21t31 -57
q0 -78 -98 -78h-45q-74 0 -74 -71v-264h113q90 0 90 -78t-90 -78h-113z" />
    <glyph glyph-name=".notdef" horiz-adv-x="1024" 
d="M102 1239v-1044l349 522zM164 102h696l-348 523zM573 717l349 -522v1044zM512 809l348 522h-696zM0 0v1434h1024v-1434h-1024z" />
    <glyph glyph-name=".null" horiz-adv-x="0" 
 />
    <glyph glyph-name="nonmarkingreturn" horiz-adv-x="681" 
 />
    <glyph glyph-name="space" unicode=" " horiz-adv-x="512" 
 />
    <glyph glyph-name="exclam" unicode="!" horiz-adv-x="606" 
d="M199 92q0 43 30 74q31 31 74 31t74 -31t31 -74t-31 -74q-31 -30 -74 -30t-74 30q-30 31 -30 74zM213 487v887q0 45 25 71q26 25 66 25t65 -26t24 -70v-887q-1 -45 -25 -71t-65 -25q-41 -1 -65 25t-25 71z" />
    <glyph glyph-name="quotedbl" unicode="&#x22;" horiz-adv-x="684" 
d="M113 1104v278q0 88 84 88t84 -88v-278q0 -88 -84 -88t-84 88zM403 1104v278q0 88 84 88t84 -88v-278q0 -88 -84 -88t-84 88z" />
    <glyph glyph-name="numbersign" unicode="#" horiz-adv-x="1097" 
d="M649 578l43 303h-243l-43 -303h243zM186 57q0 20 11 86l41 299h-125q-84 0 -84 68t84 68h143l43 303h-125q-84 -1 -84 67t84 68h143l54 381q10 74 78 73q70 0 69 -69q0 -20 -10 -86l-41 -299h244l53 381q10 74 78 73q70 0 69 -69q0 -20 -10 -86l-41 -299h125q84 0 84 -68
t-84 -67h-143l-43 -303h125q84 0 84 -68t-84 -68h-144l-53 -381q-10 -74 -78 -73q-70 0 -69 69q0 20 10 86l41 299h-244l-53 -381q-10 -74 -78 -73q-70 0 -70 69z" />
    <glyph glyph-name="dollar" unicode="$" horiz-adv-x="985" 
d="M532 680v-526q102 20 160 98t58 179t-57 155t-161 94zM446 143v568q-169 53 -213 84q-104 71 -127 113q-47 91 -48 205q-1 113 107 227t281 130v97q0 43 43 43t43 -43v-97q126 -10 220 -58t94 -112q0 -32 -23 -56t-55 -24t-98 43q-64 42 -138 52v-449q301 -102 356 -211
q54 -109 54 -206q0 -172 -109 -301q-110 -128 -301 -152v-105q0 -43 -43 -43t-43 43v97q-154 0 -278 57t-125 125q0 34 19 60q18 26 50 26t78 -28q138 -85 256 -85zM250 1111q0 -81 50 -128t146 -84v416q-88 -11 -142 -67t-54 -137z" />
    <glyph glyph-name="percent" unicode="%" horiz-adv-x="1517" 
d="M1116 1433q0 -19 -29 -94l-544 -1306q-27 -61 -67 -61t-58 16t-18 38t28 93l545 1306q27 61 67 61t58 -16q18 -18 18 -37zM1120 98q90 0 133 71t43 165t-43 165t-133 71t-133 -72q-43 -70 -43 -164t43 -165t133 -71zM1120 -12q-147 0 -229 100t-82 246t82 246t229 100
q148 0 230 -100t82 -246t-82 -246q-83 -100 -230 -100zM397 778q-147 0 -229 100t-82 246t82 246t229 100t229 -100t83 -246q-1 -146 -83 -246t-229 -100zM397 889q90 1 133 71t43 164t-43 165t-133 71t-133 -71t-43 -165t43 -164t133 -71z" />
    <glyph glyph-name="ampersand" unicode="&#x26;" horiz-adv-x="1366" 
d="M254 424q0 -112 74 -191q74 -78 211 -77q94 0 172 42t161 144l-372 430q-138 -78 -192 -157t-54 -191zM418 1178q0 -29 22 -68q22 -38 44 -64t69 -79q193 111 192 215q0 70 -49 108q-50 38 -118 37t-114 -39t-46 -110zM1268 678q0 -100 -191 -328l178 -211q37 -43 37 -77
t-22 -54t-58 -20t-63 32l-176 203q-186 -236 -451 -235q-186 0 -317 114t-131 298t77 284t248 205q-162 166 -161 285q0 152 98 224t244 72t239 -74q94 -74 94 -192q-1 -118 -71 -200t-191 -150l326 -385q38 50 85 129q48 78 76 110t58 32t50 -17q22 -16 22 -45z" />
    <glyph glyph-name="quotesingle" unicode="'" 
d="M125 1104v278q0 88 84 88t84 -88v-278q0 -88 -84 -88t-84 88z" />
    <glyph glyph-name="parenleft" unicode="(" horiz-adv-x="493" 
d="M133 651q0 449 119 764q35 92 90 92q35 0 53 -17q19 -16 19 -38t-29 -113q-84 -264 -84 -688t84 -688q29 -89 29 -111t-18 -39t-54 -18q-55 0 -90 92q-119 315 -119 764z" />
    <glyph glyph-name="parenright" unicode=")" horiz-adv-x="493" 
d="M360 651q0 -449 -118 -764q-35 -92 -90 -92q-36 -1 -54 17t-18 40t29 111q84 264 84 688t-84 688q-29 90 -29 112t18 39t54 17q55 0 90 -92q118 -315 118 -764z" />
    <glyph glyph-name="asterisk" unicode="*" horiz-adv-x="798" 
d="M78 1241q0 37 20 57q42 42 104 2q30 -18 76 -57t70 -57q0 40 -11 114t-11 102t19 48t54 20t55 -20t19 -48q0 -28 -11 -103t-11 -113q25 18 91 75t102 57t56 -20t20 -57t-46 -57l-182 -76l182 -76q47 -20 47 -57q-1 -37 -21 -57q-42 -41 -103 -3q-30 17 -76 57t-70 58
q0 -39 11 -114q11 -74 11 -102t-19 -48q-18 -20 -54 -20t-55 20t-19 48t11 102t11 114q-25 -18 -92 -76t-102 -57q-36 1 -56 21t-20 57t47 57l182 76l-182 76q-47 20 -47 57z" />
    <glyph glyph-name="plus" unicode="+" horiz-adv-x="1228" 
d="M530 602v346q0 88 84 88t84 -88v-346h346q88 0 89 -84q0 -84 -89 -84h-346v-346q0 -88 -84 -88t-84 88v346h-346q-88 0 -88 84t88 84h346z" />
    <glyph glyph-name="comma" unicode="," horiz-adv-x="512" 
d="M279 197q33 0 57 -23q45 -42 2 -131l-115 -225q-39 -76 -96 -76q-33 0 -57 22t-25 55q0 32 23 77l114 225q39 76 97 76z" />
    <glyph glyph-name="hyphen" unicode="-" horiz-adv-x="720" 
d="M571 471h-421q-33 0 -56 23q-22 24 -22 56t22 54t56 23h421q33 0 56 -23q23 -24 23 -56t-24 -54q-22 -22 -55 -23z" />
    <glyph glyph-name="period" unicode="." horiz-adv-x="512" 
d="M152 92q0 43 30 74q31 31 74 31t74 -31q30 -31 30 -74t-30 -74q-30 -30 -74 -30q-43 0 -74 30q-30 31 -30 74z" />
    <glyph glyph-name="slash" unicode="/" horiz-adv-x="833" 
d="M713 1470q35 0 57 -20t23 -51q0 -31 -29 -94l-559 -1256q-27 -61 -84 -61q-35 0 -58 20t-23 52t30 94l559 1255q27 61 84 61z" />
    <glyph glyph-name="zero" unicode="0" horiz-adv-x="1097" 
d="M260 729q0 -291 81 -438t208 -147t208 146q81 148 81 439t-81 438t-208 147t-208 -146q-81 -148 -81 -439zM68 729q0 342 137 542q137 199 344 199t344 -200t137 -541q0 -342 -137 -542q-137 -199 -344 -199t-344 200t-137 541z" />
    <glyph glyph-name="one" unicode="1" horiz-adv-x="720" 
d="M336 84v1219h-189q-33 1 -55 23t-22 54t22 56q23 23 55 22h314q31 0 43 -9t12 -40v-1325q0 -45 -24 -71q-24 -25 -66 -25q-41 0 -66 25q-24 26 -24 71z" />
    <glyph glyph-name="two" unicode="2" horiz-adv-x="1097" 
d="M926 156q34 0 56 -23t22 -55t-23 -56q-23 -22 -55 -22h-707q-51 0 -75 23t-24 51t40 82l504 673q106 139 106 247t-67 174q-67 65 -178 65t-182 -93t-71 -237q0 -82 -79 -82q-88 0 -89 111q0 190 124 323t341 133q174 0 284 -108t110 -266t-101 -289l-489 -651h553z" />
    <glyph glyph-name="three" unicode="3" horiz-adv-x="1097" 
d="M975 430q0 -202 -132 -322t-333 -120q-106 0 -194 37q-147 62 -207 199q-25 54 -25 100t22 74q22 26 54 26q70 0 100 -94q61 -186 246 -187q121 0 199 78t77 193q0 272 -254 272q-111 0 -110 78q0 57 102 80t149 78q48 55 48 157q1 102 -57 169t-150 67q-186 0 -207 -213
q-6 -84 -86 -84q-37 0 -59 24t-23 60q1 154 105 262t276 106q172 0 277 -109q104 -110 104 -267q0 -94 -44 -176t-128 -134q121 -37 185 -132t65 -222z" />
    <glyph glyph-name="four" unicode="4" horiz-adv-x="1097" 
d="M684 530v748h-4l-430 -748h434zM684 375h-582q-78 0 -77 63q0 31 45 105l516 846q49 82 141 81q137 0 137 -149v-791h92q33 0 56 -22q22 -22 22 -56q0 -32 -22 -55t-56 -22h-92v-291q0 -45 -24 -71q-24 -25 -66 -25t-66 26t-24 70v291z" />
    <glyph glyph-name="five" unicode="5" horiz-adv-x="1097" 
d="M600 948q164 0 268 -132t105 -310q0 -238 -127 -378t-346 -140q-168 0 -289 83t-121 158q0 31 18 55q39 54 119 -15q134 -113 268 -113t210 91q75 91 75 226t-63 221t-189 86q-76 0 -154 -28t-93 -27q-61 0 -62 55q0 16 14 121l76 510q8 47 68 47h506q33 0 55 -22t23 -56
q0 -34 -23 -56t-55 -21h-416l-59 -396q80 41 192 41z" />
    <glyph glyph-name="six" unicode="6" horiz-adv-x="1097" 
d="M543 786q-127 0 -191 -90t-65 -226q1 -136 65 -225t191 -89t191 89t65 226q0 315 -256 315zM991 463q-1 -201 -127 -338t-318 -137t-316 142t-124 359q0 398 333 773q189 210 259 208q25 0 50 -22q24 -22 24 -59q0 -35 -83 -109t-153 -163t-149 -232h4q111 57 232 57
q170 0 269 -139t99 -340z" />
    <glyph glyph-name="seven" unicode="7" horiz-adv-x="1024" 
d="M750 1303h-615q-33 1 -55 23t-23 54q0 32 23 56q23 23 55 22h739q92 0 93 -57q0 -29 -35 -109l-545 -1239q-29 -66 -108 -65q-23 0 -46 18t-23 49t30 99l510 1144v5z" />
    <glyph glyph-name="eight" unicode="8" horiz-adv-x="1097" 
d="M548 731q-118 0 -186 -85t-67 -213q0 -128 74 -209t180 -81t180 81t74 209t-68 213q-69 85 -187 85zM344 1101q0 -95 55 -155t149 -59q94 0 150 59q56 58 56 154t-56 155t-149 59t-149 -58q-56 -60 -56 -155zM176 1137q0 157 112 245t262 88t260 -88q112 -88 112 -245
q0 -115 -45 -188t-146 -136q123 -29 194 -130t70 -234q0 -189 -121 -325q-122 -136 -326 -136t-325 136t-121 325q0 133 71 234t194 130q-100 63 -146 136q-45 73 -45 188z" />
    <glyph glyph-name="nine" unicode="9" horiz-adv-x="1097" 
d="M555 672q127 0 191 90t65 226q0 136 -65 225q-66 89 -192 89t-190 -88q-64 -90 -65 -227q0 -315 256 -315zM552 1470q192 0 315 -142q124 -142 124 -359q0 -307 -161 -546t-347 -394q-49 -41 -79 -41t-54 22t-24 59q0 35 82 109t154 163q71 89 149 232h-4
q-111 -57 -232 -57q-170 0 -269 139t-100 340q0 201 127 338t319 137z" />
    <glyph glyph-name="colon" unicode=":" horiz-adv-x="512" 
d="M152 780q0 43 30 74q31 31 74 31t74 -31q30 -31 30 -74q0 -44 -30 -74t-74 -30t-74 30t-30 74zM152 92q0 43 30 74q31 31 74 31t74 -31q30 -31 30 -74t-30 -74q-30 -30 -74 -30q-43 0 -74 30q-30 31 -30 74z" />
    <glyph glyph-name="semicolon" unicode=";" horiz-adv-x="512" 
d="M152 780q0 43 30 74q31 31 74 31t74 -31q30 -31 30 -74q0 -44 -30 -74t-74 -30t-74 30t-30 74zM279 197q33 0 57 -23q45 -42 2 -131l-115 -225q-39 -76 -96 -76q-33 0 -57 22t-25 55q0 32 23 77l114 225q39 76 97 76z" />
    <glyph glyph-name="less" unicode="&#x3c;" horiz-adv-x="1228" 
d="M1135 69q-1 -37 -21 -59t-45 -22t-102 37l-799 399q-74 37 -74 94t74 94l799 400q79 37 103 37t44 -23q20 -24 20 -60t-65 -71l-762 -377l762 -377q66 -35 66 -72z" />
    <glyph glyph-name="equal" unicode="=" horiz-adv-x="1228" 
d="M1044 221h-860q-88 0 -88 84t88 84h860q88 0 89 -84q-1 -84 -89 -84zM1044 647h-860q-88 0 -88 84t88 84h860q88 0 89 -84q-1 -84 -89 -84z" />
    <glyph glyph-name="greater" unicode="&#x3e;" horiz-adv-x="1228" 
d="M94 967q0 37 20 59t46 23q25 0 102 -37l799 -400q74 -37 74 -94t-74 -94l-799 -399q-78 -37 -102 -37t-45 22t-21 60q0 36 66 71l762 377l-762 377q-66 35 -66 72z" />
    <glyph glyph-name="question" unicode="?" horiz-adv-x="909" 
d="M334 92q0 43 31 74t73 31t74 -31q31 -31 31 -74t-31 -74q-31 -30 -74 -30q-44 0 -74 30t-30 74zM528 487q0 -45 -24 -71t-66 -25q-42 0 -66 26t-24 70v232q0 73 20 95t124 42q188 39 188 221q0 101 -67 163t-171 63q-178 0 -237 -168q-23 -68 -80 -68q-37 0 -64 27
t-24 67q6 131 128 220q121 89 289 89t294 -107q124 -107 124 -269t-93 -266t-251 -136v-205z" />
    <glyph glyph-name="at" unicode="@" horiz-adv-x="1638" 
d="M1139 430q100 0 185 125t85 281q0 229 -165 364q-164 135 -412 135t-425 -175t-177 -436t180 -431q182 -170 456 -170q119 0 214 35q94 35 144 78q129 112 185 112q23 0 37 -13t14 -34q0 -55 -94 -130t-240 -129t-274 -54q-326 0 -552 215t-226 525t227 526t535 216
t519 -172q210 -172 210 -438q1 -141 -53 -256q-90 -194 -298 -278q-84 -35 -157 -35q-123 0 -144 117h-4q-104 -117 -235 -117t-220 94t-89 227q0 205 132 368t330 163q166 0 240 -154l27 82q18 59 83 59t64 -45q0 -16 -16 -73l-127 -439q-16 -57 -17 -84q0 -59 58 -59z
M545 631q0 -80 49 -132q49 -53 120 -53t127 44t88 110q62 128 62 240q0 147 -153 147q-137 -1 -215 -113t-78 -243z" />
    <glyph glyph-name="A" unicode="A" horiz-adv-x="1253" 
d="M909 473l-280 789h-4l-281 -789h565zM20 54q0 26 25 100l453 1206q39 110 129 110t129 -110l452 -1206q25 -74 25 -100t-25 -46t-61 -20q-63 0 -88 67l-94 262h-676l-94 -262q-25 -68 -89 -67q-38 0 -62 20t-24 46z" />
    <glyph glyph-name="B" unicode="B" horiz-adv-x="1099" 
d="M119 98v1262q0 98 96 98h317q182 0 288 -106t106 -234t-56 -213q-56 -86 -147 -114v-5q133 -14 224 -115t91 -245q0 -180 -128 -303t-349 -123h-346q-96 0 -96 98zM299 694v-538h254q133 0 219 74t86 194q0 118 -80 194t-217 76h-262zM299 1303v-461h205q114 0 178 66
t63 169q0 101 -59 163t-176 63h-211z" />
    <glyph glyph-name="C" unicode="C" horiz-adv-x="1214" 
d="M256 729q0 -233 116 -409t330 -177q153 0 312 99q91 57 132 10q19 -23 19 -62q0 -72 -139 -138t-333 -64q-194 0 -342 108t-218 273t-70 335t42 302q92 287 325 402q127 62 293 62t289 -74t123 -139q-1 -37 -21 -61t-52 -25q-32 0 -73 36q-123 108 -276 108
q-117 0 -207 -51q-163 -92 -223 -325q-27 -101 -27 -210z" />
    <glyph glyph-name="D" unicode="D" horiz-adv-x="1290" 
d="M309 1303v-1147h258q347 0 442 364q26 100 25 217q0 246 -119 406t-360 160h-246zM129 98v1262q0 98 96 98h355q208 0 358 -101q288 -195 289 -620q0 -333 -167 -535t-456 -202h-379q-96 0 -96 98z" />
    <glyph glyph-name="E" unicode="E" horiz-adv-x="909" 
d="M299 645v-477h434q88 0 88 -84t-88 -84h-518q-96 0 -96 98v1262q0 98 96 98h518q88 0 88 -84t-88 -84h-434v-477h395q88 0 88 -84t-88 -84h-395z" />
    <glyph glyph-name="F" unicode="F" horiz-adv-x="833" 
d="M299 645v-561q0 -45 -25 -71q-26 -25 -66 -25t-65 26t-24 70v1276q0 98 96 98h512q88 0 88 -84t-88 -84h-428v-477h379q88 0 88 -84t-88 -84h-379z" />
    <glyph glyph-name="G" unicode="G" horiz-adv-x="1366" 
d="M1145 668h-254q-88 0 -88 84t88 84h303q72 0 102 -33t29 -145q0 -256 -124 -450q-67 -104 -193 -162t-292 -58t-290 62q-230 116 -321 404q-42 132 -42 302t69 334q70 164 224 272t366 108t359 -82t148 -151q0 -37 -25 -61q-26 -24 -58 -25q-32 0 -72 26q-40 27 -80 57
t-114 56t-178 25q-104 0 -195 -51q-164 -92 -224 -325q-27 -101 -27 -211q0 -218 106 -395q52 -87 146 -138t217 -52q197 1 309 137t111 302v86z" />
    <glyph glyph-name="H" unicode="H" horiz-adv-x="1366" 
d="M299 653v-557q0 -109 -90 -108q-90 0 -90 108v1266q0 109 90 108q90 0 90 -108v-553h768v553q0 109 90 108q90 0 90 -108v-1266q0 -109 -90 -108q-90 0 -90 108v557h-768z" />
    <glyph glyph-name="I" unicode="I" 
d="M299 1374v-1290q0 -45 -25 -71q-26 -25 -66 -25t-65 26t-24 70v1290q0 45 24 71q25 25 66 25t65 -26t25 -70z" />
    <glyph glyph-name="J" unicode="J" horiz-adv-x="757" 
d="M459 352v1022q0 45 24 71q25 25 66 25t65 -26t25 -70v-1003q0 -383 -354 -383q-90 0 -195 46q-104 46 -104 118q0 35 19 55t52 20t93 -42t149 -42q160 0 160 209z" />
    <glyph glyph-name="K" unicode="K" horiz-adv-x="1175" 
d="M299 84q0 -45 -25 -71q-26 -25 -66 -25t-65 26t-24 70v1290q0 45 24 71q25 25 66 25t65 -26t25 -70v-532l625 571q61 57 97 57q35 0 57 -22t22 -62q0 -42 -37 -75l-598 -539l653 -631q37 -35 37 -71t-26 -59q-25 -23 -67 -23t-83 39l-680 667v-610z" />
    <glyph glyph-name="L" unicode="L" horiz-adv-x="796" 
d="M299 1374v-1206h385q88 0 88 -84t-88 -84h-469q-96 0 -96 98v1276q0 45 24 71q25 25 66 25t65 -26t25 -70z" />
    <glyph glyph-name="M" unicode="M" horiz-adv-x="1708" 
d="M144 -12q-86 0 -85 92q0 25 11 82l198 1171q25 137 142 137q102 0 131 -94l311 -1067h4l311 1067q29 94 131 94q117 0 142 -137l198 -1171q10 -57 11 -82q0 -92 -85 -92t-96 78l-170 1171h-4l-348 -1176q-22 -73 -92 -73t-92 73l-348 1176h-4l-170 -1171q-10 -78 -96 -78
z" />
    <glyph glyph-name="N" unicode="N" horiz-adv-x="1368" 
d="M299 1141v-1057q0 -45 -25 -71q-26 -25 -66 -25t-65 26t-24 70v1280q0 106 82 106q39 0 63 -19t64 -75l737 -1059h4v1057q0 45 25 71q26 25 66 25t65 -26t24 -70v-1280q0 -106 -82 -106q-39 0 -63 19t-64 75l-737 1059h-4z" />
    <glyph glyph-name="O" unicode="O" horiz-adv-x="1404" 
d="M63 729q0 195 71 361q70 166 220 274t348 106q198 0 349 -108t221 -272q70 -166 70 -361t-72 -361q-70 -166 -220 -273t-348 -107t-348 108t-220 272q-70 166 -71 361zM702 143q156 0 261 91q186 163 186 495t-186 495q-105 91 -261 91t-260 -91q-186 -163 -186 -494
t186 -496q104 -91 260 -91z" />
    <glyph glyph-name="P" unicode="P" horiz-adv-x="1062" 
d="M299 1303v-603h266q131 0 215 86t84 211t-76 215t-231 91h-258zM299 545v-461q0 -45 -25 -71q-26 -25 -66 -25t-65 26t-24 70v1276q0 98 96 98h356q215 0 344 -131t129 -325t-134 -325q-134 -132 -332 -132h-279z" />
    <glyph glyph-name="Q" unicode="Q" horiz-adv-x="1402" 
d="M63 730q0 194 71 360q70 166 220 274t348 106q198 0 349 -108t221 -272q70 -166 69 -361q0 -262 -127 -461l152 -149q35 -35 35 -69t-22 -56q-21 -22 -57 -23q-36 0 -69 33l-143 141q-164 -158 -408 -157q-198 0 -348 108t-220 273q-71 167 -71 361zM1149 710
q0 170 -41 296q-41 127 -145 218q-105 91 -261 91t-260 -91q-186 -163 -186 -494t186 -496q104 -91 271 -91t280 117l-121 119q-68 68 -14 126q24 23 58 23t67 -32l100 -99q66 143 66 313z" />
    <glyph glyph-name="R" unicode="R" horiz-adv-x="1062" 
d="M545 784q273 0 271 250q0 123 -77 196q-76 73 -198 73h-242v-519h246zM299 84q0 -45 -25 -71q-26 -25 -66 -25t-65 26t-24 70v1276q0 98 96 98h334q180 0 313 -110t133 -283q1 -209 -109 -308t-288 -106l-78 -2l465 -510q35 -37 35 -74t-24 -57t-64 -20t-76 41l-557 610
v-555z" />
    <glyph glyph-name="S" unicode="S" horiz-adv-x="985" 
d="M487 1470q139 0 249 -50t110 -120q0 -32 -23 -56q-47 -48 -121 0q-104 71 -212 71q-109 1 -175 -57q-65 -58 -65 -137q1 -136 137 -199q61 -29 135 -54q74 -24 148 -56t135 -74t99 -116t38 -173q0 -189 -133 -325t-360 -136q-152 0 -279 51t-127 125q0 40 19 66
q20 26 50 26t74 -28q135 -85 268 -85q132 0 214 86t82 211q0 80 -52 135t-128 82q-206 72 -333 134q-77 37 -128 115t-51 203t119 243q120 118 310 118z" />
    <glyph glyph-name="T" unicode="T" horiz-adv-x="909" 
d="M365 84v1206h-273q-88 0 -88 84t88 84h725q88 0 88 -84t-88 -84h-272v-1206q0 -45 -25 -71q-26 -25 -66 -25t-65 25q-24 26 -24 71z" />
    <glyph glyph-name="U" unicode="U" horiz-adv-x="1368" 
d="M119 578v796q0 45 24 71q25 25 66 25t65 -26t25 -70v-866q0 -170 105 -267q106 -97 280 -97t280 96q106 98 105 268v866q0 45 25 71q26 25 66 25t65 -26t24 -70v-796q0 -141 -36 -250t-91 -171q-55 -63 -132 -103q-126 -66 -306 -66q-290 0 -438 169q-55 62 -91 171
t-36 250z" />
    <glyph glyph-name="V" unicode="V" horiz-adv-x="1138" 
d="M1052 1470q34 0 56 -22q37 -37 10 -121l-444 -1241q-16 -51 -39 -75q-23 -23 -66 -23t-65 24t-39 74l-445 1241q-12 37 -12 68t23 53t57 22t56 -18q24 -18 31 -36t24 -62l368 -1063h4l369 1063q16 43 24 61q7 18 30 37q24 18 58 18z" />
    <glyph glyph-name="W" unicode="W" horiz-adv-x="1708" 
d="M1575 1470q37 0 59 -24t23 -60q0 -36 -10 -90l-222 -1190q-23 -119 -129 -118q-57 0 -89 24t-52 94l-299 1070h-4l-299 -1070q-20 -72 -52 -96t-89 -22q-106 0 -129 118l-222 1190q-10 52 -10 90t23 62t59 22q84 0 98 -84l191 -1165h4l336 1178q20 71 92 71t92 -71
l336 -1178h4l191 1165q14 84 98 84z" />
    <glyph glyph-name="X" unicode="X" horiz-adv-x="1216" 
d="M109 -12q-39 0 -65 22t-26 54q0 30 29 73l457 645l-381 539q-29 41 -29 74t24 55t66 20q42 0 82 -57l342 -500l342 500q41 57 83 57t66 -22q51 -46 -5 -127l-381 -539l456 -645q29 -43 29 -74t-26 -53t-56 -22q-49 0 -90 57l-418 596l-418 -596q-41 -57 -81 -57z" />
    <glyph glyph-name="Y" unicode="Y" horiz-adv-x="1024" 
d="M422 84v600l-391 637q-29 45 -29 77t24 52t68 20t80 -57l338 -551l338 551q35 57 80 57q44 0 68 -20t24 -52t-29 -77l-391 -637v-600q0 -45 -24 -71q-24 -25 -66 -25q-41 0 -66 25q-24 26 -24 71z" />
    <glyph glyph-name="Z" unicode="Z" horiz-adv-x="1138" 
d="M969 1458q94 0 94 -74q0 -38 -45 -104l-752 -1124h735q39 0 64 -20t25 -58t-25 -58t-64 -20h-845q-106 0 -107 82q0 45 35 96l750 1125h-662q-40 0 -64 20t-24 57q0 38 25 58t63 20h797z" />
    <glyph glyph-name="bracketleft" unicode="[" horiz-adv-x="493" 
d="M324 1315v-1327h69q33 0 56 -23t23 -55t-24 -56q-22 -22 -55 -22h-141q-96 0 -96 98v1442q0 98 96 98h141q33 0 56 -22t23 -56q0 -32 -24 -55q-22 -23 -55 -22h-69z" />
    <glyph glyph-name="backslash" unicode="\" horiz-adv-x="833" 
d="M41 1399q0 31 22 51q23 20 58 20q57 0 84 -61l559 -1255q29 -62 29 -94t-23 -52t-57 -20q-57 0 -84 61l-559 1256q-29 63 -29 94z" />
    <glyph glyph-name="bracketright" unicode="]" horiz-adv-x="493" 
d="M170 -12v1327h-70q-34 1 -56 23t-21 55t23 55t54 22h142q96 0 96 -98v-1442q0 -98 -96 -98h-142q-34 0 -56 23t-22 55t24 56q22 22 54 22h70z" />
    <glyph glyph-name="asciicircum" unicode="^" horiz-adv-x="1228" 
d="M185 592q-27 0 -49 19t-22 45t36 92l358 638q47 84 106 84t107 -84l358 -638q35 -66 35 -92t-22 -45t-54 -19q-33 0 -50 20t-52 82l-322 596l-321 -596q-25 -45 -35 -60q-10 -14 -28 -28t-45 -14z" />
    <glyph glyph-name="underscore" unicode="_" horiz-adv-x="1024" 
d="M1024 -256h-1024q-59 0 -59 51t59 51h1024q59 0 59 -51t-59 -51z" />
    <glyph glyph-name="grave" unicode="`" 
d="M53 1520q31 0 76 -19l236 -96q72 -29 71 -76q0 -29 -20 -57t-51 -28t-76 18l-236 96q-72 29 -71 76q0 30 20 58t51 28z" />
    <glyph glyph-name="a" unicode="a" horiz-adv-x="1138" 
d="M252 545q0 -160 74 -281t226 -121t224 121q74 121 74 281q0 161 -74 281t-226 120t-224 -120q-74 -120 -74 -281zM1020 1014v-938q0 -43 -27 -66q-27 -22 -59 -22t-56 22q-26 22 -26 66v76h-4q-115 -164 -297 -164q-221 0 -350 164t-129 393t129 393t350 164
q164 0 297 -146h4v58q0 44 26 66t58 22t58 -22t26 -66z" />
    <glyph glyph-name="b" unicode="b" horiz-adv-x="1138" 
d="M127 84v1401q0 45 25 71q26 26 66 25q40 0 65 -26t24 -70v-531h4q41 60 117 104t174 44q213 0 339 -164t126 -393t-126 -393t-339 -164t-291 149h-4v-53q-1 -45 -25 -71q-24 -25 -65 -25t-65 26t-25 70zM289 545q-1 -160 73 -281t226 -121t226 121t73 281q0 161 -74 281
q-73 120 -225 120t-226 -120t-73 -281z" />
    <glyph glyph-name="c" unicode="c" horiz-adv-x="909" 
d="M72 545q0 233 128 395t363 162q133 0 213 -40t80 -97q0 -29 -22 -53t-51 -24q-30 0 -91 30q-61 29 -129 28q-155 0 -233 -122t-78 -280t79 -279q79 -122 232 -122q72 0 134 31t83 31q70 0 70 -76q0 -55 -78 -98t-209 -43q-235 0 -363 162t-128 395z" />
    <glyph glyph-name="d" unicode="d" horiz-adv-x="1138" 
d="M831 84v53h-4q-79 -149 -291 -149t-338 164t-126 393t126 393t339 164q98 0 174 -44t116 -104h4v531q0 45 25 71t66 25q42 0 66 -26t24 -70v-1401q0 -45 -25 -71q-25 -25 -65 -25t-66 26q-25 26 -25 70zM850 545q0 161 -74 281t-226 120t-224 -121q-74 -121 -74 -281
t74 -280q74 -121 226 -121t224 121q74 121 74 281z" />
    <glyph glyph-name="e" unicode="e" horiz-adv-x="1064" 
d="M831 610q0 131 -74 234q-75 102 -214 102q-154 6 -229 -94t-81 -242h598zM911 475h-678q-1 -143 87 -237t235 -95q83 0 149 23q66 24 100 52q88 74 117 73q30 0 49 -22t19 -58q0 -71 -141 -147t-295 -76q-246 0 -373 160t-127 394t134 397q135 163 351 163t345 -160
t129 -371q0 -49 -23 -73t-78 -23z" />
    <glyph glyph-name="f" unicode="f" horiz-adv-x="530" 
d="M356 934v-850q0 -45 -24 -71q-24 -25 -66 -25t-66 26t-24 70v850h-74q-90 0 -90 78t90 78h74v256q0 113 68 174t172 61h55q39 1 71 -21t31 -57q0 -78 -98 -78h-45q-74 0 -74 -71v-264h113q90 0 90 -78t-90 -78h-113z" />
    <glyph glyph-name="g" unicode="g" horiz-adv-x="1138" 
d="M252 545q0 -160 74 -281t226 -121t224 121q74 121 74 281q0 161 -74 281t-226 120t-224 -120q-74 -120 -74 -281zM1012 1014v-936q0 -242 -134 -381t-358 -139q-141 0 -279 66t-139 132q0 33 18 59q40 56 138 -6q147 -96 291 -96q143 -1 213 99t69 237v94h-4
q-92 -156 -276 -155q-221 0 -350 164t-129 393t129 393t350 164q82 0 160 -42t116 -95h4v49q0 44 28 66t64 22q37 0 63 -22t26 -66z" />
    <glyph glyph-name="h" unicode="h" horiz-adv-x="1101" 
d="M803 84v594q0 133 -76 201q-76 67 -176 67t-176 -68t-76 -200v-594q0 -45 -25 -71q-26 -25 -66 -25t-65 26t-24 70v1401q1 45 25 71t65 25q41 0 65 -26t25 -70v-522l4 -5q113 143 301 144q135 0 252 -91q57 -46 92 -129t35 -194v-604q0 -45 -25 -71q-26 -25 -66 -25
t-65 25q-24 26 -24 71z" />
    <glyph glyph-name="i" unicode="i" 
d="M98 1360q0 45 33 78q33 32 78 32t78 -32t33 -78q0 -45 -34 -78q-32 -33 -77 -33t-78 33t-33 78zM299 1006v-922q0 -45 -25 -71q-26 -25 -66 -25t-65 26t-24 70v922q1 44 25 70t65 26t65 -26t25 -70z" />
    <glyph glyph-name="j" unicode="j" 
d="M98 1360q0 45 33 78q33 32 78 32t78 -32t33 -78q0 -45 -34 -78q-32 -33 -77 -33t-78 33t-33 78zM299 1006v-1352q0 -45 -25 -71q-26 -25 -66 -25t-65 26t-24 70v1352q1 44 25 70t65 26t65 -26t25 -70z" />
    <glyph glyph-name="k" unicode="k" horiz-adv-x="948" 
d="M119 84v1401q1 45 25 71t65 25q41 0 65 -26t25 -70v-768l393 330q62 55 100 55t58 -23t20 -61t-45 -74l-409 -323l475 -469q43 -44 43 -84t-23 -60t-53 -20t-51 11q-20 11 -53 44l-455 475v-434q0 -45 -25 -71q-26 -25 -66 -25t-65 25q-24 26 -24 71z" />
    <glyph glyph-name="l" unicode="l" 
d="M299 1485v-1401q0 -45 -25 -71q-26 -25 -66 -25t-65 26t-24 70v1401q1 45 25 71t65 25q41 1 65 -25t25 -71z" />
    <glyph glyph-name="m" unicode="m" horiz-adv-x="1708" 
d="M764 84v610q0 117 -62 185q-62 67 -171 67q-110 0 -171 -68t-61 -184v-610q0 -45 -25 -71q-26 -25 -66 -25t-65 26t-24 70v922q1 44 25 70t65 26t65 -26t25 -70v-33l4 -4q29 37 55 61t84 48q59 24 136 24q190 0 299 -184q129 184 333 184q135 0 252 -91q57 -46 92 -129
t35 -194v-604q-1 -45 -25 -71q-24 -25 -65 -25t-65 26t-25 70v610q0 117 -61 185q-61 67 -171 67t-171 -68t-62 -184v-610q0 -45 -24 -71q-24 -25 -66 -25q-41 0 -66 25q-24 26 -24 71z" />
    <glyph glyph-name="n" unicode="n" horiz-adv-x="1101" 
d="M119 84v922q1 44 25 70t65 26t65 -26t25 -70v-43l4 -5q113 143 301 144q135 0 252 -91q57 -46 92 -129t35 -194v-604q0 -45 -25 -71q-26 -25 -66 -25t-65 26t-24 70v594q0 133 -76 201q-76 67 -176 67t-176 -68t-76 -200v-594q0 -45 -25 -71q-26 -25 -66 -25t-65 25
q-24 26 -24 71z" />
    <glyph glyph-name="o" unicode="o" horiz-adv-x="1101" 
d="M252 545q0 -160 74 -281t226 -121t224 121q74 121 74 281q0 161 -74 281t-226 120t-224 -120q-74 -120 -74 -281zM72 545q0 229 129 393t350 164t350 -164t129 -393t-129 -393t-350 -164t-350 164t-129 393z" />
    <glyph glyph-name="p" unicode="p" horiz-adv-x="1138" 
d="M127 -346v1352q0 44 25 70q26 26 66 26t65 -26t24 -70v-54h4q78 150 291 150t339 -164t126 -393t-126 -393t-339 -164q-98 0 -174 44t-117 103h-4v-481q-1 -45 -25 -71q-24 -25 -65 -25t-65 26t-25 70zM289 545q-1 -160 73 -281t226 -121t226 121t73 281q0 161 -74 281
q-73 120 -225 120t-226 -120t-73 -281z" />
    <glyph glyph-name="q" unicode="q" horiz-adv-x="1138" 
d="M72 545q0 229 126 393t339 164t290 -150h4v54q0 44 25 70t66 26q42 0 66 -26t24 -70v-1352q0 -45 -25 -71q-25 -25 -65 -25t-66 26q-25 26 -25 70v481h-4q-41 -59 -117 -103t-173 -44q-213 0 -339 164t-126 393zM850 545q0 161 -74 281t-226 120t-224 -121
q-74 -121 -74 -281t74 -280q74 -121 226 -121t224 121q74 121 74 281z" />
    <glyph glyph-name="r" unicode="r" horiz-adv-x="645" 
d="M119 84v922q1 44 25 70t65 26t65 -26t25 -70v-93h4q35 72 105 130q70 59 129 59t86 -27t26 -65q0 -78 -104 -96t-175 -94q-71 -75 -71 -218v-518q0 -45 -25 -71q-26 -25 -66 -25t-65 25q-24 26 -24 71z" />
    <glyph glyph-name="s" unicode="s" horiz-adv-x="909" 
d="M94 795q0 141 112 224t247 83t255 -56t119 -137q1 -31 -21 -53t-57 -20q-35 0 -69 28q-105 84 -201 83t-150 -37q-55 -36 -55 -94t60 -99t146 -72q85 -31 170 -67q86 -36 146 -102q60 -65 60 -152q0 -162 -117 -249t-281 -87t-286 66q-123 66 -123 141q0 37 22 59
q47 48 128 -11q132 -100 266 -100q94 0 152 44q59 45 59 103t-60 104t-146 80q-85 34 -170 72q-86 38 -146 102t-60 147z" />
    <glyph glyph-name="t" unicode="t" horiz-adv-x="532" 
d="M176 1090v235q0 45 25 71t65 26t66 -26q25 -26 24 -71v-235h74q90 0 90 -78t-90 -78h-74v-850q0 -45 -24 -71q-24 -25 -66 -25t-66 26t-24 70v850h-74q-90 0 -90 78t90 78h74z" />
    <glyph glyph-name="u" unicode="u" horiz-adv-x="1101" 
d="M119 422v584q1 44 25 70t65 26t65 -26t25 -70v-578q0 -285 252 -285t252 285v578q1 44 25 70t65 26t65 -26t25 -70v-584q0 -222 -124 -328t-308 -106t-308 106t-124 328z" />
    <glyph glyph-name="v" unicode="v" horiz-adv-x="872" 
d="M92 1102q70 0 94 -70l248 -753h4l248 753q25 70 94 70q35 0 59 -23q23 -23 23 -55t-18 -80l-314 -878q-14 -42 -33 -60t-61 -18t-60 18q-20 18 -34 60l-313 878q-36 98 5 135q24 23 58 23z" />
    <glyph glyph-name="w" unicode="w" horiz-adv-x="1519" 
d="M4 1026q0 28 22 52t64 24q72 0 100 -92l232 -744h4l227 717q21 67 41 93t66 26t65 -26q20 -26 41 -93l228 -717h4l231 744q29 92 101 92q42 0 64 -25t22 -51t-15 -74l-299 -870q-32 -94 -104 -94t-103 94l-233 735h-4l-234 -735q-30 -94 -102 -94t-105 94l-299 870
q-14 47 -14 74z" />
    <glyph glyph-name="x" unicode="x" horiz-adv-x="950" 
d="M57 1021q0 33 22 57q23 24 61 24t71 -41l264 -352l264 352q33 41 72 41t61 -24t21 -58q0 -34 -31 -72l-282 -370l321 -422q37 -49 37 -85t-24 -60q-24 -23 -66 -23t-72 41l-301 417l-301 -417q-29 -41 -72 -41q-42 0 -66 24t-24 59q0 36 37 85l322 422l-283 370
q-31 39 -31 73z" />
    <glyph glyph-name="y" unicode="y" horiz-adv-x="909" 
d="M117 1102q70 0 90 -68l250 -747h4l246 747q20 68 86 68q33 0 57 -22t24 -52t-24 -102l-455 -1301q-25 -68 -88 -67q-33 0 -57 22t-25 52q0 30 27 102l115 305l-308 887q-25 74 -25 104t26 50q24 22 57 22z" />
    <glyph glyph-name="z" unicode="z" horiz-adv-x="909" 
d="M778 156q90 0 90 -78t-90 -78h-649q-88 0 -88 63q0 39 37 93l520 778h-446q-90 0 -91 78q0 78 91 78h606q88 0 88 -64q0 -39 -37 -92l-526 -774l6 -4h489z" />
    <glyph glyph-name="braceleft" unicode="{" horiz-adv-x="493" 
d="M156 53v250q0 194 -41 239q-19 22 -63 34t-63 26q-19 16 -20 49q1 33 21 49t62 26t67 38q37 40 37 235v250q0 221 209 221h77q82 0 82 -61t-82 -61h-28q-41 0 -66 -27t-24 -72v-323q0 -252 -187 -273v-4q186 -20 187 -272v-324q0 -45 24 -71t66 -27h28q82 0 82 -61
t-82 -62h-77q-209 0 -209 221z" />
    <glyph glyph-name="bar" unicode="|" horiz-adv-x="454" 
d="M143 -512v2048q0 88 84 88t84 -88v-2048q0 -88 -84 -88t-84 88z" />
    <glyph glyph-name="braceright" unicode="}" horiz-adv-x="493" 
d="M338 1249v-250q0 -197 41 -238q20 -22 63 -34q42 -11 62 -27t20 -49t-20 -49t-62 -26t-69 -39q-26 -28 -31 -96q-4 -68 -4 -138v-250q0 -221 -209 -221h-78q-82 0 -82 62t82 61h29q42 0 66 27t24 71v324q0 252 186 272v4q-186 20 -186 273v323q0 45 -25 72t-65 27h-29
q-82 0 -82 61t82 61h78q209 0 209 -221z" />
    <glyph glyph-name="asciitilde" unicode="~" horiz-adv-x="1228" 
d="M131 430q0 86 85 161t182 75q96 0 238 -70t187 -70t99 71t94 69q41 -2 61 -20t21 -40q0 -86 -85 -161t-183 -75t-238 70t-186 70t-99 -71t-104 -68q-31 2 -51 19t-21 40z" />
    <glyph glyph-name="uni00A0" unicode="&#xa0;" horiz-adv-x="512" 
 />
    <glyph glyph-name="exclamdown" unicode="&#xa1;" horiz-adv-x="606" 
d="M408 997q0 -43 -31 -73t-74 -31q-43 0 -74 31q-31 32 -31 74t31 73t74 31t74 -31t31 -74zM393 602v-887q-1 -45 -25 -71t-65 -25q-41 0 -65 26t-25 70v887q0 45 25 71q26 25 66 25t65 -25q24 -26 24 -71z" />
    <glyph glyph-name="cent" unicode="&#xa2;" horiz-adv-x="909" 
d="M252 544q0 -126 53 -236q54 -109 160 -146v768q-105 -39 -159 -149q-54 -111 -54 -237zM465 -123v121q-190 33 -292 186q-101 154 -101 361t101 361t292 188v118q0 43 43 43t43 -43v-110q141 0 223 -40t82 -97q0 -29 -22 -53t-50 -24q-30 0 -94 30q-64 29 -139 28v-803
q79 0 145 31t84 31q70 0 70 -76q0 -55 -80 -98t-219 -43v-111q0 -43 -43 -43t-43 43z" />
    <glyph glyph-name="sterling" unicode="&#xa3;" horiz-adv-x="1214" 
d="M760 815q88 0 88 -84t-88 -84h-223q14 -83 14 -147t-48 -162t-128 -170h690q88 0 88 -84t-88 -84h-819q-109 0 -109 86q0 29 37 71t80 84q43 43 80 117t37 155t-15 134h-206q-88 0 -89 84q0 84 89 84h157q-100 180 -100 293q0 158 132 260t310 102t324 -118
q145 -119 145 -244q0 -41 -24 -65q-24 -23 -61 -23t-61 29t-43 71t-46 83q-27 42 -85 71t-156 29q-98 1 -176 -55q-79 -56 -79 -150t73 -219q28 -50 36 -64h264z" />
    <glyph glyph-name="currency" unicode="&#xa4;" horiz-adv-x="1097" 
d="M209 729q0 -154 100 -253q99 -99 239 -99t240 99t101 253q-1 154 -101 253t-239 99t-239 -99t-101 -253zM41 730q0 192 100 304l-69 72q-29 28 -29 58t24 52t45 21q21 0 44 -23l86 -88q117 111 307 111t307 -111l86 88q22 23 44 23t46 -22q24 -21 23 -51q0 -30 -29 -58
l-70 -72q100 -114 100 -306t-100 -304l70 -72q29 -28 29 -58t-24 -52t-45 -21q-21 0 -44 23l-86 88q-117 -111 -307 -111t-307 111l-86 -88q-22 -23 -44 -23t-46 22t-23 51q0 29 29 58l69 72q-100 114 -100 306z" />
    <glyph glyph-name="yen" unicode="&#xa5;" horiz-adv-x="1097" 
d="M459 535v145h-281q-84 0 -84 68t84 67h197l-328 506q-31 47 -31 79t23 51t49 19q55 0 94 -57l367 -551l366 551q39 57 95 57q28 0 50 -19q48 -41 -9 -130l-328 -506h197q84 1 84 -67t-84 -68h-281v-145h281q84 0 84 -68t-84 -68h-281v-315q0 -45 -25 -71q-26 -25 -66 -25
t-65 26t-24 70v315h-281q-84 0 -84 68t84 68h281z" />
    <glyph glyph-name="brokenbar" unicode="&#xa6;" horiz-adv-x="454" 
d="M143 -270v540q0 88 84 88t84 -88v-540q0 -88 -84 -88t-84 88zM143 754v540q0 88 84 88t84 -88v-540q0 -88 -84 -88t-84 88z" />
    <glyph glyph-name="section" unicode="&#xa7;" horiz-adv-x="1138" 
d="M238 572q0 -81 61 -137t193 -122l233 -114q104 78 140 136t36 128t-35 123t-147 104l-256 119q-106 -45 -166 -100q-59 -56 -59 -137zM174 1135q0 159 119 247t304 88t307 -98t122 -211q0 -39 -22 -67t-58 -27q-59 0 -101 88q-17 37 -41 73t-77 62t-144 25
q-91 0 -160 -46t-69 -122t75 -132q75 -55 181 -99t214 -96t183 -143t75 -203t-63 -206q-62 -96 -161 -151q133 -89 133 -237t-132 -236t-298 -86q-109 2 -202 34q-157 55 -231 176q-30 48 -30 85q0 102 90 102q61 0 105 -85q18 -36 45 -72q64 -85 201 -85t205 47
q68 46 67 112q0 66 -56 116q-55 50 -139 84q-84 33 -182 78t-181 92t-139 128q-56 82 -56 196t64 195q65 81 185 142q-73 53 -103 105t-30 127z" />
    <glyph glyph-name="dieresis" unicode="&#xa8;" 
d="M289 1348q0 46 32 78q33 32 79 32t78 -33t32 -77t-32 -78q-32 -33 -79 -33t-79 33t-31 78zM-92 1348q0 46 32 78t78 32t79 -33q32 -33 32 -77t-32 -78q-32 -33 -79 -33q-46 0 -78 33t-32 78z" />
    <glyph glyph-name="copyright" unicode="&#xa9;" horiz-adv-x="1638" 
d="M819 143q233 0 404 172q170 172 170 414t-170 414q-169 172 -403 172t-404 -172t-170 -414t170 -414t403 -172zM819 -12q-307 0 -524 217t-217 524t217 524t524 217t524 -217t217 -524t-216 -524q-218 -217 -525 -217zM823 1051q-127 -1 -197 -89t-69 -224
q0 -136 74 -229t192 -93t174 66q25 28 43 56q42 66 84 66q66 0 66 -57q0 -72 -101 -169t-280 -97t-299 130q-120 131 -121 325q0 194 119 322t302 128q184 0 282 -92t98 -168q0 -58 -63 -58t-113 91q-18 34 -68 63t-123 29z" />
    <glyph glyph-name="ordfeminine" unicode="&#xaa;" horiz-adv-x="739" 
d="M377 924q76 0 123 62t47 150t-47 149q-47 63 -123 63t-123 -62t-47 -150t47 -150t123 -62zM680 1417v-563q0 -53 -68 -53t-67 53v33h-4q-63 -86 -170 -86q-139 0 -226 95q-86 96 -86 240t86 239t226 95q106 0 170 -86h4v33q-1 53 67 53t68 -53z" />
    <glyph glyph-name="guillemotleft" unicode="&#xab;" horiz-adv-x="833" 
d="M78 549l203 364q31 53 67 53t60 -18q48 -36 2 -117l-170 -282l170 -283q47 -79 -2 -116q-25 -18 -61 -18t-66 52zM756 900q0 -30 -23 -69l-170 -282l170 -283q23 -38 23 -68t-25 -48t-61 -18t-66 52l-203 365l203 364q31 53 67 53q37 0 61 -18t24 -48z" />
    <glyph glyph-name="logicalnot" unicode="&#xac;" horiz-adv-x="1228" 
d="M965 647h-781q-88 0 -88 84t88 84h865q84 0 84 -88v-418q0 -88 -84 -88t-84 88v338z" />
    <glyph glyph-name="uni00AD" unicode="&#xad;" horiz-adv-x="720" 
d="M571 471h-421q-33 0 -56 23q-22 24 -22 56t22 54t56 23h421q33 0 56 -23q23 -24 23 -56t-24 -54q-22 -22 -55 -23z" />
    <glyph glyph-name="registered" unicode="&#xae;" horiz-adv-x="1638" 
d="M819 143q233 0 404 172q170 172 170 414t-170 414q-169 172 -403 172t-404 -172t-170 -414t170 -414t403 -172zM819 -12q-307 0 -524 217t-217 524t217 524t524 217t524 -217t217 -524t-216 -524q-218 -217 -525 -217zM649 780h156q93 0 131 16q68 27 70 113q0 47 -32 74
t-67 32t-90 5h-168v-240zM649 657v-292q1 -66 -67 -66t-68 66v735q0 43 47 43h270q160 1 235 -55t75 -189q0 -209 -211 -235l182 -279q20 -31 20 -49t-23 -28q-24 -10 -52 -9q-53 0 -82 45l-195 313h-131z" />
    <glyph glyph-name="macron" unicode="&#xaf;" 
d="M2 1411h414q88 0 88 -84t-88 -84h-414q-88 0 -88 84t88 84z" />
    <glyph glyph-name="degree" unicode="&#xb0;" horiz-adv-x="819" 
d="M227 1178q-1 -76 53 -129t130 -53t129 52q53 54 53 130t-53 129t-129 53t-130 -53t-53 -129zM117 1178q0 120 86 206t207 86q120 0 206 -86t86 -206t-86 -207q-86 -86 -206 -86t-207 86q-86 86 -86 207z" />
    <glyph glyph-name="plusminus" unicode="&#xb1;" horiz-adv-x="1228" 
d="M1044 0h-860q-88 0 -88 84t88 84h860q88 0 89 -84q-1 -84 -89 -84zM530 723v225q0 88 84 88t84 -88v-225h346q88 0 89 -84q0 -84 -89 -84h-346v-225q0 -88 -84 -88t-84 88v225h-346q-88 0 -88 84t88 84h346z" />
    <glyph glyph-name="twosuperior" unicode="&#xb2;" horiz-adv-x="712" 
d="M571 719q78 1 78 -61t-78 -62h-446q-31 0 -46 13q-31 27 9 77l350 444q53 68 54 115q0 47 -36 75t-103 28t-115 -54t-50 -114q0 -49 -59 -50q-63 0 -63 68q0 113 80 193q80 79 216 79t206 -63t71 -151q0 -88 -74 -179l-297 -358h303z" />
    <glyph glyph-name="threesuperior" unicode="&#xb3;" horiz-adv-x="712" 
d="M86 1257q0 93 66 153t188 60t192 -64t70 -161q0 -125 -113 -186q78 -23 120 -79t42 -132q0 -121 -91 -193q-91 -71 -221 -71t-204 68t-74 140q0 73 58 72q37 0 59 -51q49 -106 166 -106q66 0 113 45t47 110q0 129 -137 129q-57 -1 -75 13t-20 40q0 26 14 37t64 23
q106 24 105 135q0 43 -35 76t-92 33t-90 -30t-41 -71q-7 -47 -59 -47t-52 57z" />
    <glyph glyph-name="acute" unicode="&#xb4;" 
d="M-18 1329q0 47 71 76l236 96q45 19 75 19t52 -29q20 -29 20 -57q1 -47 -71 -76l-236 -96q-45 -18 -76 -18t-51 28q-20 29 -20 57z" />
    <glyph glyph-name="mu" unicode="&#xb5;" horiz-adv-x="1101" 
d="M119 -346v1352q1 44 25 70t65 26t65 -26t25 -70v-578q0 -154 56 -220q55 -66 195 -65q140 0 196 66t57 219v578q1 44 25 70t65 26t65 -26t25 -70v-922q0 -45 -25 -71t-65 -25q-68 0 -84 59q-98 -59 -261 -59t-249 94v-428q0 -45 -25 -71q-26 -25 -66 -25t-65 25
q-24 26 -24 71z" />
    <glyph glyph-name="paragraph" unicode="&#xb6;" horiz-adv-x="1228" 
d="M496 -354v1059q-197 0 -318 105t-121 274q0 170 134 272t389 102h391q96 0 96 -98v-1714q0 -88 -84 -88t-84 88v1677h-235v-1677q0 -88 -84 -88t-84 88z" />
    <glyph glyph-name="periodcentered" unicode="&#xb7;" horiz-adv-x="512" 
d="M145 621q0 47 32 79t79 31q47 0 79 -32q32 -33 32 -79t-32 -78t-79 -32t-79 32t-32 79z" />
    <glyph glyph-name="cedilla" unicode="&#xb8;" 
d="M344 -203q0 25 -18 31t-68 6q-65 0 -65 46q0 13 20 44l53 76h109l-60 -86q31 6 43 6q62 0 102 -37t40 -76q0 -90 -62 -133t-146 -43q-168 0 -169 72q0 55 43 55l106 -16q72 0 72 55z" />
    <glyph glyph-name="onesuperior" unicode="&#xb9;" horiz-adv-x="468" 
d="M178 1335h-104q-58 -1 -58 61t58 62h213q39 0 39 -28v-773q0 -74 -74 -73q-30 0 -52 18t-22 55v678z" />
    <glyph glyph-name="ordmasculine" unicode="&#xba;" horiz-adv-x="716" 
d="M195 1136q0 -88 46 -150q45 -62 117 -62t118 62t46 150t-46 149q-46 63 -118 63t-118 -62t-45 -150zM358 1470q140 0 226 -95t86 -239t-85 -240t-225 -95q-140 -1 -227 95q-86 96 -86 240t86 239t225 95z" />
    <glyph glyph-name="guillemotright" unicode="&#xbb;" horiz-adv-x="833" 
d="M401 900q0 30 25 48q24 18 60 18t67 -53l203 -364l-203 -365q-31 -53 -67 -53q-36 1 -60 19t-25 48q0 30 23 68l170 283l-170 282q-23 39 -23 69zM162 131q-36 1 -60 19q-25 18 -25 48t23 68l170 283l-170 282q-47 80 2 117q25 18 61 18t66 -53l203 -364l-203 -365
q-31 -53 -67 -53z" />
    <glyph glyph-name="onequarter" unicode="&#xbc;" horiz-adv-x="1648" 
d="M236 1335h-105q-57 -1 -57 61t57 62h213q39 0 39 -28v-773q0 -74 -74 -73q-31 0 -53 18t-20 55v678zM385 26q0 22 29 93l544 1306q27 61 67 61t58 -16q19 -18 19 -40t-29 -91l-545 -1306q-26 -61 -66 -61t-58 16t-19 38zM1323 322v405h-4l-238 -405h242zM1323 199h-365
q-47 0 -47 49q0 27 29 71l326 490q41 66 102 65q102 0 102 -90v-462h50q25 0 40 -18t15 -44q0 -27 -15 -44t-40 -17h-50v-148q0 -63 -74 -63t-73 63v148z" />
    <glyph glyph-name="onehalf" unicode="&#xbd;" horiz-adv-x="1648" 
d="M1436 123q78 0 77 -62q0 -61 -77 -61h-447q-31 0 -46 13t-15 29t24 48l351 445q53 69 53 115t-36 74t-102 28t-116 -54q-49 -54 -49 -114q1 -49 -61 -49t-62 67q0 113 81 193q81 79 216 79t206 -63t71 -153t-74 -177l-297 -358h303zM236 1335h-105q-57 -1 -57 61t57 62
h213q39 0 39 -28v-773q0 -74 -74 -73q-31 0 -53 18t-20 55v678zM1040 1430q0 -22 -28 -91l-545 -1306q-27 -61 -67 -61t-58 16t-18 38t28 93l545 1306q27 61 67 61t58 -16q18 -18 18 -40z" />
    <glyph glyph-name="threequarters" unicode="&#xbe;" horiz-adv-x="1648" 
d="M111 1257q0 93 66 153t187 60t192 -64t71 -161q0 -125 -113 -186q78 -23 120 -79t42 -132q0 -121 -91 -193q-91 -71 -221 -71t-204 68t-74 140q0 73 57 72q37 0 60 -51q49 -106 166 -106q67 0 113 45t46 110q0 129 -137 129q-57 -1 -75 13t-19 40q0 26 13 37q14 11 64 23
q107 24 105 135q0 43 -35 76t-92 33t-90 -30t-41 -71q-6 -47 -58 -47t-52 57zM508 26q0 22 29 93l544 1306q27 61 67 61t58 -16q18 -18 18 -40t-28 -91l-545 -1306q-27 -61 -67 -61t-58 16t-18 38zM1323 322v405h-4l-238 -405h242zM1323 199h-365q-47 0 -47 49q0 27 29 71
l326 490q41 66 102 65q102 0 102 -90v-462h50q25 0 40 -18t15 -44q0 -27 -15 -44t-40 -17h-50v-148q0 -63 -74 -63t-73 63v148z" />
    <glyph glyph-name="questiondown" unicode="&#xbf;" horiz-adv-x="909" 
d="M575 997q-1 -43 -31 -73t-73 -31q-43 0 -74 31q-31 32 -31 74t31 73t74 31t73 -31t31 -74zM381 602q0 45 25 71q26 25 66 25t65 -26t24 -70v-231q0 -72 -20 -95t-123 -43q-188 -39 -189 -221q0 -102 67 -164t171 -61q178 0 238 168q23 68 79 68q37 0 64 -27t24 -68
q-6 -131 -128 -220t-290 -89t-292 108q-125 107 -125 269t93 265t251 136v205z" />
    <glyph glyph-name="Agrave" unicode="&#xc0;" horiz-adv-x="1253" 
d="M399 1761q1 29 21 58t51 29t76 -19l235 -96q72 -29 72 -76q0 -29 -20 -58t-51 -29t-76 19l-236 97q-72 29 -72 75zM909 473l-280 789h-4l-281 -789h565zM20 54q0 26 25 100l453 1206q39 110 129 110t129 -110l452 -1206q25 -74 25 -100t-25 -46t-61 -20q-63 0 -88 67
l-94 262h-676l-94 -262q-25 -68 -89 -67q-38 0 -62 20t-24 46z" />
    <glyph glyph-name="Aacute" unicode="&#xc1;" horiz-adv-x="1253" 
d="M471 1571q-31 1 -51 29t-21 57q0 47 72 76l236 96q45 18 75 18t52 -28q20 -29 20 -58q0 -46 -72 -75l-235 -97q-45 -18 -76 -18zM909 473l-280 789h-4l-281 -789h565zM20 54q0 26 25 100l453 1206q39 110 129 110t129 -110l452 -1206q25 -74 25 -100t-25 -46t-61 -20
q-63 0 -88 67l-94 262h-676l-94 -262q-25 -68 -89 -67q-38 0 -62 20t-24 46z" />
    <glyph glyph-name="Acircumflex" unicode="&#xc2;" horiz-adv-x="1253" 
d="M938 1658q0 -42 -20 -65q-36 -41 -99 -12l-192 76l-193 -76q-22 -10 -50 -10q-28 1 -48 23t-20 64t46 62l265 113l264 -113q47 -20 47 -62zM909 473l-280 789h-4l-281 -789h565zM20 54q0 26 25 100l453 1206q39 110 129 110t129 -110l452 -1206q25 -74 25 -100t-25 -46
t-61 -20q-63 0 -88 67l-94 262h-676l-94 -262q-25 -68 -89 -67q-38 0 -62 20t-24 46z" />
    <glyph glyph-name="Atilde" unicode="&#xc3;" horiz-adv-x="1253" 
d="M758 1589q-66 1 -134 21t-104 20t-72 -20t-60 -20t-45 24t-21 64t54 80t120 40t134 -20q70 -20 104 -20t71 20t61 20t44 -24q22 -24 22 -65q0 -40 -54 -80t-120 -40zM909 473l-280 789h-4l-281 -789h565zM20 54q0 26 25 100l453 1206q39 110 129 110t129 -110l452 -1206
q25 -74 25 -100t-25 -46t-61 -20q-63 0 -88 67l-94 262h-676l-94 -262q-25 -68 -89 -67q-38 0 -62 20t-24 46z" />
    <glyph glyph-name="Adieresis" unicode="&#xc4;" horiz-adv-x="1253" 
d="M707 1675q0 45 31 78q32 33 79 33t79 -33t32 -78t-32 -78t-79 -33t-79 33q-31 33 -31 78zM326 1675q0 45 31 78q32 33 79 33t79 -33t32 -78t-32 -78t-79 -33t-79 33q-31 33 -31 78zM909 473l-280 789h-4l-281 -789h565zM20 54q0 26 25 100l453 1206q39 110 129 110
t129 -110l452 -1206q25 -74 25 -100t-25 -46t-61 -20q-63 0 -88 67l-94 262h-676l-94 -262q-25 -68 -89 -67q-38 0 -62 20t-24 46z" />
    <glyph glyph-name="Aring" unicode="&#xc5;" horiz-adv-x="1253" 
d="M532 1696q0 -39 28 -67q28 -27 67 -27t67 28t27 66q0 38 -28 66q-29 28 -67 28t-66 -28t-28 -66zM434 1696q0 80 56 136t136 56t137 -56q56 -56 56 -136t-56 -136t-136 -56q-81 0 -137 56t-56 136zM909 473l-280 789h-4l-281 -789h565zM20 54q0 26 25 100l453 1206
q39 110 129 110t129 -110l452 -1206q25 -74 25 -100t-25 -46t-61 -20q-63 0 -88 67l-94 262h-676l-94 -262q-25 -68 -89 -67q-38 0 -62 20t-24 46z" />
    <glyph glyph-name="AE" unicode="&#xc6;" horiz-adv-x="1554" 
d="M764 473v776h-4l-391 -776h395zM944 645v-477h434q88 0 88 -84t-88 -84h-518q-96 0 -96 98v219h-473l-139 -272q-27 -57 -86 -57q-37 0 -61 19q-23 19 -23 48t26 82l637 1243q27 51 50 65q24 13 75 13h588q88 0 88 -84t-88 -84h-414v-477h395q88 0 88 -84t-88 -84h-395z
" />
    <glyph glyph-name="Ccedilla" unicode="&#xc7;" horiz-adv-x="1214" 
d="M713 -203q-1 25 -19 31t-67 6q-66 0 -66 46q0 13 21 44l47 68q-266 28 -416 240t-150 502t162 507q78 105 205 167t293 62t289 -74t123 -139q-1 -37 -21 -61t-52 -25q-32 0 -73 36q-123 108 -276 108q-117 0 -207 -51q-163 -92 -223 -325q-27 -101 -27 -210
q0 -233 116 -409t330 -177q153 0 312 99q91 57 132 10q19 -23 19 -62q0 -70 -128 -132t-302 -68l-51 -76q31 6 43 6q63 0 102 -37t39 -76q0 -90 -61 -133t-147 -43q-168 0 -168 72q0 55 43 55l106 -16q72 0 72 55z" />
    <glyph glyph-name="Egrave" unicode="&#xc8;" horiz-adv-x="909" 
d="M227 1761q1 29 21 58t51 29t76 -19l235 -96q72 -29 72 -76q0 -29 -20 -58t-51 -29t-76 19l-236 97q-72 29 -72 75zM299 645v-477h434q88 0 88 -84t-88 -84h-518q-96 0 -96 98v1262q0 98 96 98h518q88 0 88 -84t-88 -84h-434v-477h395q88 0 88 -84t-88 -84h-395z" />
    <glyph glyph-name="Eacute" unicode="&#xc9;" horiz-adv-x="909" 
d="M299 1571q-31 1 -51 29t-21 57q0 47 72 76l236 96q45 18 75 18t52 -28q20 -29 20 -58q0 -46 -72 -75l-235 -97q-45 -18 -76 -18zM299 645v-477h434q88 0 88 -84t-88 -84h-518q-96 0 -96 98v1262q0 98 96 98h518q88 0 88 -84t-88 -84h-434v-477h395q88 0 88 -84t-88 -84
h-395z" />
    <glyph glyph-name="Ecircumflex" unicode="&#xca;" horiz-adv-x="909" 
d="M766 1658q0 -42 -20 -65q-36 -40 -99 -12l-192 76l-193 -76q-22 -10 -50 -10q-28 1 -48 23t-20 64t46 62l265 113l264 -113q47 -20 47 -62zM299 645v-477h434q88 0 88 -84t-88 -84h-518q-96 0 -96 98v1262q0 98 96 98h518q88 0 88 -84t-88 -84h-434v-477h395q88 0 88 -84
t-88 -84h-395z" />
    <glyph glyph-name="Edieresis" unicode="&#xcb;" horiz-adv-x="909" 
d="M535 1675q0 45 31 78q32 33 79 33t79 -33t32 -78t-32 -78t-79 -33t-79 33q-31 33 -31 78zM154 1675q0 45 31 78q32 33 79 33t79 -33t32 -78t-32 -78t-79 -33t-79 33q-31 33 -31 78zM299 645v-477h434q88 0 88 -84t-88 -84h-518q-96 0 -96 98v1262q0 98 96 98h518
q88 0 88 -84t-88 -84h-434v-477h395q88 0 88 -84t-88 -84h-395z" />
    <glyph glyph-name="Igrave" unicode="&#xcc;" 
d="M289 1589l-236 97q-72 29 -71 75q0 29 20 58t51 29t76 -19l236 -96q72 -29 71 -76q0 -29 -20 -58t-51 -29t-76 19zM299 1374v-1290q0 -45 -25 -71q-26 -25 -66 -25t-65 26t-24 70v1290q0 45 24 71q25 25 66 25t65 -26t25 -70z" />
    <glyph glyph-name="Iacute" unicode="&#xcd;" 
d="M53 1571q-31 1 -51 29t-20 57q0 47 71 76l236 96q45 18 75 18t52 -28q20 -29 20 -58q1 -46 -71 -75l-236 -97q-45 -18 -76 -18zM299 1374v-1290q0 -45 -25 -71q-26 -25 -66 -25t-65 26t-24 70v1290q0 45 24 71q25 25 66 25t65 -26t25 -70z" />
    <glyph glyph-name="Icircumflex" unicode="&#xce;" 
d="M520 1658q0 -42 -20 -65q-36 -41 -99 -12l-192 76l-193 -76q-22 -10 -50 -10q-28 1 -48 23t-20 64t47 62l264 113l264 -113q47 -20 47 -62zM299 1374v-1290q0 -45 -25 -71q-26 -25 -66 -25t-65 26t-24 70v1290q0 45 24 71q25 25 66 25t65 -26t25 -70z" />
    <glyph glyph-name="Idieresis" unicode="&#xcf;" 
d="M289 1675q0 45 32 78q33 33 79 33t78 -33t32 -78t-32 -78t-79 -33t-79 34q-32 32 -31 77zM-92 1675q0 45 32 78t78 33t79 -33q32 -33 32 -78t-32 -78t-79 -33q-46 0 -78 34q-32 32 -32 77zM299 1374v-1290q0 -45 -25 -71q-26 -25 -66 -25t-65 26t-24 70v1290q0 45 24 71
q25 25 66 25t65 -26t25 -70z" />
    <glyph glyph-name="Eth" unicode="&#xd0;" horiz-adv-x="1290" 
d="M309 657v-501h258q347 0 442 364q26 100 25 217q0 246 -119 406t-360 160h-246v-490h246q39 0 63 -20q24 -19 25 -57q0 -38 -25 -58t-63 -21h-246zM129 98v559h-78q-39 1 -63 21t-25 57q0 37 25 57t63 21h78v547q0 98 96 98h355q208 0 358 -101q288 -195 289 -620
q0 -333 -167 -535t-456 -202h-379q-96 0 -96 98z" />
    <glyph glyph-name="Ntilde" unicode="&#xd1;" horiz-adv-x="1368" 
d="M816 1589q-66 1 -135 21t-104 20t-71 -20t-61 -20q-24 0 -45 24t-21 64t54 80q53 40 119 40t135 -20t104 -20t71 20t61 20q23 0 45 -24t22 -65q0 -40 -55 -80q-53 -40 -119 -40zM299 1141v-1057q0 -45 -25 -71q-26 -25 -66 -25t-65 26t-24 70v1280q0 106 82 106
q39 0 63 -19t64 -75l737 -1059h4v1057q0 45 25 71q26 25 66 25t65 -26t24 -70v-1280q0 -106 -82 -106q-39 0 -63 19t-64 75l-737 1059h-4z" />
    <glyph glyph-name="Ograve" unicode="&#xd2;" horiz-adv-x="1404" 
d="M475 1761q1 29 21 58t51 29t76 -19l235 -96q72 -29 72 -76q0 -29 -20 -58t-52 -29q-31 0 -76 19l-235 97q-72 29 -72 75zM63 729q0 195 71 361q70 166 220 274t348 106q198 0 349 -108t221 -272q70 -166 70 -361t-72 -361q-70 -166 -220 -273t-348 -107t-348 108
t-220 272q-70 166 -71 361zM702 143q156 0 261 91q186 163 186 495t-186 495q-105 91 -261 91t-260 -91q-186 -163 -186 -494t186 -496q104 -91 260 -91z" />
    <glyph glyph-name="Oacute" unicode="&#xd3;" horiz-adv-x="1404" 
d="M547 1571q-31 1 -51 29t-21 57q0 47 72 76l235 96q45 18 76 18q31 -1 51 -29t21 -57q0 -46 -72 -75l-235 -97q-45 -18 -76 -18zM63 729q0 195 71 361q70 166 220 274t348 106q198 0 349 -108t221 -272q70 -166 70 -361t-72 -361q-70 -166 -220 -273t-348 -107t-348 108
t-220 272q-70 166 -71 361zM702 143q156 0 261 91q186 163 186 495t-186 495q-105 91 -261 91t-260 -91q-186 -163 -186 -494t186 -496q104 -91 260 -91z" />
    <glyph glyph-name="Ocircumflex" unicode="&#xd4;" horiz-adv-x="1404" 
d="M1014 1658q0 -42 -20 -65q-36 -40 -99 -12l-193 76l-192 -76q-22 -10 -50 -10q-28 1 -48 23t-20 64t46 62l264 113l265 -113q47 -20 47 -62zM63 729q0 195 71 361q70 166 220 274t348 106q198 0 349 -108t221 -272q70 -166 70 -361t-72 -361q-70 -166 -220 -273
t-348 -107t-348 108t-220 272q-70 166 -71 361zM702 143q156 0 261 91q186 163 186 495t-186 495q-105 91 -261 91t-260 -91q-186 -163 -186 -494t186 -496q104 -91 260 -91z" />
    <glyph glyph-name="Otilde" unicode="&#xd5;" horiz-adv-x="1404" 
d="M397 1678q1 40 55 80t120 40t134 -20q70 -20 104 -20t71 20t61 20t44 -24q22 -24 22 -65q0 -40 -54 -80t-120 -40q-66 1 -135 21t-103 20t-72 -20q-36 -20 -60 -20t-46 24t-21 64zM63 729q0 195 71 361q70 166 220 274t348 106q198 0 349 -108t221 -272q70 -166 70 -361
t-72 -361q-70 -166 -220 -273t-348 -107t-348 108t-220 272q-70 166 -71 361zM702 143q156 0 261 91q186 163 186 495t-186 495q-105 91 -261 91t-260 -91q-186 -163 -186 -494t186 -496q104 -91 260 -91z" />
    <glyph glyph-name="Odieresis" unicode="&#xd6;" horiz-adv-x="1404" 
d="M782 1675q0 45 33 78t78 33t78 -33t33 -78t-33 -78t-78 -33t-78 34q-33 32 -33 77zM401 1675q0 45 33 78t78 33t78 -33t33 -78t-33 -78t-78 -33t-78 34q-33 32 -33 77zM63 729q0 195 71 361q70 166 220 274t348 106q198 0 349 -108t221 -272q70 -166 70 -361t-72 -361
q-70 -166 -220 -273t-348 -107t-348 108t-220 272q-70 166 -71 361zM702 143q156 0 261 91q186 163 186 495t-186 495q-105 91 -261 91t-260 -91q-186 -163 -186 -494t186 -496q104 -91 260 -91z" />
    <glyph glyph-name="multiply" unicode="&#xd7;" horiz-adv-x="1228" 
d="M1008 989q34 1 56 -23q54 -58 -22 -135l-313 -313l313 -313q43 -43 43 -77q1 -34 -21 -58t-56 -23q-34 0 -82 47l-312 312l-311 -312q-47 -47 -82 -47t-57 24q-22 23 -21 57q0 34 43 77l314 313l-314 313q-43 43 -43 77t22 58q55 59 138 -24l311 -309l312 309
q47 47 82 47z" />
    <glyph glyph-name="Oslash" unicode="&#xd8;" horiz-adv-x="1404" 
d="M1296 1487q30 1 48 -15q20 -16 20 -42t-25 -54l-141 -164q143 -203 143 -483q-1 -195 -71 -361t-220 -273q-150 -108 -348 -107q-246 0 -413 164l-125 -148q-29 -33 -60 -33q-31 -1 -47 17t-16 42t29 58l135 158q-141 205 -142 483q0 195 71 361q70 166 220 274t348 106
q246 1 414 -161l121 143q29 35 59 35zM702 143q156 0 261 91q186 163 186 495q0 199 -70 344l-682 -797q113 -133 305 -133zM718 1315q-172 0 -276 -91q-186 -163 -186 -495q0 -197 72 -340l680 795q-118 131 -290 131z" />
    <glyph glyph-name="Ugrave" unicode="&#xd9;" horiz-adv-x="1368" 
d="M764 1589l-236 97q-72 29 -71 75q0 29 20 58q19 29 51 29t76 -19l236 -96q72 -29 71 -76q0 -29 -20 -58t-51 -29t-76 19zM119 578v796q0 45 24 71q25 25 66 25t65 -26t25 -70v-866q0 -170 105 -267q106 -97 280 -97t280 96q106 98 105 268v866q0 45 25 71q26 25 66 25
t65 -26t24 -70v-796q0 -141 -36 -250t-91 -171q-55 -63 -132 -103q-126 -66 -306 -66q-290 0 -438 169q-55 62 -91 171t-36 250z" />
    <glyph glyph-name="Uacute" unicode="&#xda;" horiz-adv-x="1368" 
d="M528 1571q-30 0 -51 28q-20 29 -20 58q0 47 71 76l236 96q45 18 76 18q31 -1 51 -29t20 -57q1 -46 -71 -75l-236 -97q-46 -18 -76 -18zM119 578v796q0 45 24 71q25 25 66 25t65 -26t25 -70v-866q0 -170 105 -267q106 -97 280 -97t280 96q106 98 105 268v866q0 45 25 71
q26 25 66 25t65 -26t24 -70v-796q0 -141 -36 -250t-91 -171q-55 -63 -132 -103q-126 -66 -306 -66q-290 0 -438 169q-55 62 -91 171t-36 250z" />
    <glyph glyph-name="Ucircumflex" unicode="&#xdb;" horiz-adv-x="1368" 
d="M995 1658q0 -42 -20 -65q-35 -41 -98 -12l-193 76l-192 -76q-23 -10 -51 -10q-28 1 -48 23t-20 64t47 62l264 113l264 -113q47 -20 47 -62zM119 578v796q0 45 24 71q25 25 66 25t65 -26t25 -70v-866q0 -170 105 -267q106 -97 280 -97t280 96q106 98 105 268v866
q0 45 25 71q26 25 66 25t65 -26t24 -70v-796q0 -141 -36 -250t-91 -171q-55 -63 -132 -103q-126 -66 -306 -66q-290 0 -438 169q-55 62 -91 171t-36 250z" />
    <glyph glyph-name="Udieresis" unicode="&#xdc;" horiz-adv-x="1368" 
d="M764 1675q0 45 32 78t78 33t79 -33q32 -33 32 -78t-32 -78t-79 -33q-46 0 -78 34q-32 32 -32 77zM383 1675q0 45 32 78t79 33q46 0 78 -33t32 -78t-32 -78t-78 -33t-79 34q-32 32 -32 77zM119 578v796q0 45 24 71q25 25 66 25t65 -26t25 -70v-866q0 -170 105 -267
q106 -97 280 -97t280 96q106 98 105 268v866q0 45 25 71q26 25 66 25t65 -26t24 -70v-796q0 -141 -36 -250t-91 -171q-55 -63 -132 -103q-126 -66 -306 -66q-290 0 -438 169q-55 62 -91 171t-36 250z" />
    <glyph glyph-name="Yacute" unicode="&#xdd;" horiz-adv-x="1024" 
d="M356 1571q-31 1 -51 29t-20 57q0 47 71 76l236 96q45 18 76 18q31 -1 51 -29t20 -57q1 -46 -71 -75l-236 -97q-45 -18 -76 -18zM422 84v600l-391 637q-29 45 -29 77t24 52t68 20t80 -57l338 -551l338 551q35 57 80 57q44 0 68 -20t24 -52t-29 -77l-391 -637v-600
q0 -45 -24 -71q-24 -25 -66 -25q-41 0 -66 25q-24 26 -24 71z" />
    <glyph glyph-name="Thorn" unicode="&#xde;" horiz-adv-x="1062" 
d="M299 319v-235q0 -45 -25 -71q-26 -25 -66 -25t-65 26t-24 70v1290q0 45 24 71q25 25 66 25t65 -26t25 -70v-145h272q213 0 343 -132q130 -131 130 -323t-134 -323t-332 -132h-279zM299 1073v-598h266q131 0 215 85t84 209t-76 214t-231 90h-258z" />
    <glyph glyph-name="germandbls" unicode="&#xdf;" horiz-adv-x="1138" 
d="M119 76v1077q-1 199 107 313t286 115q178 0 293 -116t115 -257q0 -236 -158 -344q127 -32 201 -146q73 -114 73 -276t-111 -308q-112 -146 -294 -146q-119 0 -119 84q0 78 68 78q145 0 204 82q60 82 60 228t-70 223t-170 83t-100 76q0 41 18 57q18 15 62 29t63 25
q92 51 92 215q0 122 -60 190t-163 67q-217 0 -217 -307v-1042q0 -45 -27 -67q-28 -21 -64 -21t-63 21q-26 22 -26 67z" />
    <glyph glyph-name="agrave" unicode="&#xe0;" horiz-adv-x="1138" 
d="M342 1434q0 30 20 58t52 28t75 -19l236 -96q72 -29 72 -76q-1 -29 -21 -57t-51 -28t-76 18l-235 96q-72 29 -72 76zM252 545q0 -160 74 -281t226 -121t224 121q74 121 74 281q0 161 -74 281t-226 120t-224 -120q-74 -120 -74 -281zM1020 1014v-938q0 -43 -27 -66
q-27 -22 -59 -22t-56 22q-26 22 -26 66v76h-4q-115 -164 -297 -164q-221 0 -350 164t-129 393t129 393t350 164q164 0 297 -146h4v58q0 44 26 66t58 22t58 -22t26 -66z" />
    <glyph glyph-name="aacute" unicode="&#xe1;" horiz-adv-x="1138" 
d="M342 1329q0 47 72 76l235 96q45 19 76 19t51 -29t21 -57q0 -47 -72 -76l-236 -96q-45 -18 -75 -18t-52 28q-20 29 -20 57zM252 545q0 -160 74 -281t226 -121t224 121q74 121 74 281q0 161 -74 281t-226 120t-224 -120q-74 -120 -74 -281zM1020 1014v-938q0 -43 -27 -66
q-27 -22 -59 -22t-56 22q-26 22 -26 66v76h-4q-115 -164 -297 -164q-221 0 -350 164t-129 393t129 393t350 164q164 0 297 -146h4v58q0 44 26 66t58 22t58 -22t26 -66z" />
    <glyph glyph-name="acircumflex" unicode="&#xe2;" horiz-adv-x="1138" 
d="M881 1330q-1 -42 -21 -64t-48 -23q-28 0 -50 10l-193 76l-192 -76q-23 -10 -51 -10t-47 23q-21 23 -21 65t47 62l264 112l265 -112q47 -21 47 -63zM252 545q0 -160 74 -281t226 -121t224 121q74 121 74 281q0 161 -74 281t-226 120t-224 -120q-74 -120 -74 -281z
M1020 1014v-938q0 -43 -27 -66q-27 -22 -59 -22t-56 22q-26 22 -26 66v76h-4q-115 -164 -297 -164q-221 0 -350 164t-129 393t129 393t350 164q164 0 297 -146h4v58q0 44 26 66t58 22t58 -22t26 -66z" />
    <glyph glyph-name="atilde" unicode="&#xe3;" horiz-adv-x="1138" 
d="M330 1262q-24 0 -44 24q-22 24 -22 64t54 80q90 68 254 20q69 -20 104 -20t72 20q36 20 60 20t46 -24t20 -64q0 -40 -54 -80t-120 -40t-134 20q-70 20 -104 20t-71 -20t-61 -20zM252 545q0 -160 74 -281t226 -121t224 121q74 121 74 281q0 161 -74 281t-226 120
t-224 -120q-74 -120 -74 -281zM1020 1014v-938q0 -43 -27 -66q-27 -22 -59 -22t-56 22q-26 22 -26 66v76h-4q-115 -164 -297 -164q-221 0 -350 164t-129 393t129 393t350 164q164 0 297 -146h4v58q0 44 26 66t58 22t58 -22t26 -66z" />
    <glyph glyph-name="adieresis" unicode="&#xe4;" horiz-adv-x="1138" 
d="M649 1348q0 46 32 78t79 32t79 -33q31 -33 31 -77t-32 -78q-32 -33 -78 -33q-47 0 -79 33t-32 78zM268 1348q0 46 32 78t79 32t79 -33t32 -77t-32 -78q-32 -33 -79 -33t-79 33t-32 78zM252 545q0 -160 74 -281t226 -121t224 121q74 121 74 281q0 161 -74 281t-226 120
t-224 -120q-74 -120 -74 -281zM1020 1014v-938q0 -43 -27 -66q-27 -22 -59 -22t-56 22q-26 22 -26 66v76h-4q-115 -164 -297 -164q-221 0 -350 164t-129 393t129 393t350 164q164 0 297 -146h4v58q0 44 26 66t58 22t58 -22t26 -66z" />
    <glyph glyph-name="aring" unicode="&#xe5;" horiz-adv-x="1138" 
d="M475 1389q0 -39 28 -67q29 -28 67 -28t66 28t28 67t-28 67t-67 27q-39 1 -67 -27t-27 -67zM377 1389q0 80 56 136t136 56q81 0 137 -56t56 -136q0 -81 -56 -137t-136 -56t-137 56q-56 56 -56 137zM252 545q0 -160 74 -281t226 -121t224 121q74 121 74 281q0 161 -74 281
t-226 120t-224 -120q-74 -120 -74 -281zM1020 1014v-938q0 -43 -27 -66q-27 -22 -59 -22t-56 22q-26 22 -26 66v76h-4q-115 -164 -297 -164q-221 0 -350 164t-129 393t129 393t350 164q164 0 297 -146h4v58q0 44 26 66t58 22t58 -22t26 -66z" />
    <glyph glyph-name="ae" unicode="&#xe6;" horiz-adv-x="1820" 
d="M1014 610h573q0 132 -75 234t-216 102t-212 -101q-70 -102 -70 -235zM850 76v76h-4q-113 -164 -295 -164q-221 0 -350 164t-129 393t129 393t350 164q166 0 295 -146h4v58q0 44 26 66t58 22t58 -23t26 -65v-45h4q26 37 108 85t179 48q182 0 320 -148t138 -383
q-1 -49 -23 -73t-77 -23h-666q5 -133 93 -231t237 -97q76 2 137 24q62 23 94 49q84 68 114 69q30 2 49 -20q19 -21 21 -61t-58 -93t-156 -90t-189 -37q-217 0 -321 131h-4v-43q0 -43 -27 -66q-27 -22 -59 -22t-56 22q-26 22 -26 66zM252 545q0 -160 74 -281t226 -121
t224 121q74 121 74 281q0 161 -74 281t-226 120t-224 -120q-74 -120 -74 -281z" />
    <glyph glyph-name="ccedilla" unicode="&#xe7;" horiz-adv-x="909" 
d="M559 -203q0 25 -19 31t-68 6q-64 0 -64 46q0 13 20 44l49 72q-197 28 -301 184t-104 377t128 383t363 162q133 0 213 -40t80 -97q0 -29 -22 -53t-51 -24q-30 0 -91 30q-61 29 -129 28q-155 0 -233 -122t-78 -280t79 -279q79 -122 232 -122q72 0 134 31t83 31q70 0 70 -76
q0 -53 -72 -95t-196 -44l-52 -76q31 6 43 6q63 0 103 -37t39 -76q1 -90 -61 -133t-148 -43q-168 0 -168 72q0 55 43 55l106 -16q72 0 72 55z" />
    <glyph glyph-name="egrave" unicode="&#xe8;" horiz-adv-x="1064" 
d="M305 1434q1 30 21 58t51 28t76 -19l235 -96q72 -29 72 -76q0 -29 -20 -57t-52 -28q-31 0 -76 18l-235 96q-72 29 -72 76zM831 610q0 131 -74 234q-75 102 -214 102q-154 6 -229 -94t-81 -242h598zM911 475h-678q-1 -143 87 -237t235 -95q83 0 149 23q66 24 100 52
q88 74 117 73q30 0 49 -22t19 -58q0 -71 -141 -147t-295 -76q-246 0 -373 160t-127 394t134 397q135 163 351 163t345 -160t129 -371q0 -49 -23 -73t-78 -23z" />
    <glyph glyph-name="eacute" unicode="&#xe9;" horiz-adv-x="1064" 
d="M688 1358l-235 -96q-45 -18 -76 -18t-51 28q-20 29 -21 57q0 47 72 76l235 96q45 19 76 19t51 -29t21 -57q0 -47 -72 -76zM831 610q0 131 -74 234q-75 102 -214 102q-154 6 -229 -94t-81 -242h598zM911 475h-678q-1 -143 87 -237t235 -95q83 0 149 23q66 24 100 52
q88 74 117 73q30 0 49 -22t19 -58q0 -71 -141 -147t-295 -76q-246 0 -373 160t-127 394t134 397q135 163 351 163t345 -160t129 -371q0 -49 -23 -73t-78 -23z" />
    <glyph glyph-name="ecircumflex" unicode="&#xea;" horiz-adv-x="1064" 
d="M844 1330q0 -42 -20 -64t-49 -23q-28 0 -50 10l-193 76l-192 -76q-22 -10 -50 -10t-48 23t-20 65t46 62l264 112l265 -112q47 -21 47 -63zM831 610q0 131 -74 234q-75 102 -214 102q-154 6 -229 -94t-81 -242h598zM911 475h-678q-1 -143 87 -237t235 -95q83 0 149 23
q66 24 100 52q88 74 117 73q30 0 49 -22t19 -58q0 -71 -141 -147t-295 -76q-246 0 -373 160t-127 394t134 397q135 163 351 163t345 -160t129 -371q0 -49 -23 -73t-78 -23z" />
    <glyph glyph-name="edieresis" unicode="&#xeb;" horiz-adv-x="1064" 
d="M612 1348q0 46 32 78t79 32t79 -33t32 -77t-32 -78q-32 -33 -79 -33t-79 33t-32 78zM231 1348q0 46 32 78t79 32t79 -33t32 -77t-32 -78q-32 -33 -79 -33t-79 33t-32 78zM831 610q0 131 -74 234q-75 102 -214 102q-154 6 -229 -94t-81 -242h598zM911 475h-678
q-1 -143 87 -237t235 -95q83 0 149 23q66 24 100 52q88 74 117 73q30 0 49 -22t19 -58q0 -71 -141 -147t-295 -76q-246 0 -373 160t-127 394t134 397q135 163 351 163t345 -160t129 -371q0 -49 -23 -73t-78 -23z" />
    <glyph glyph-name="igrave" unicode="&#xec;" 
d="M53 1520q31 0 76 -19l236 -96q72 -29 71 -76q0 -29 -20 -57t-51 -28t-76 18l-236 96q-72 29 -71 76q0 30 20 58t51 28zM299 1006v-922q0 -45 -25 -71q-26 -25 -66 -25t-65 26t-24 70v922q1 44 25 70t65 26t65 -26t25 -70z" />
    <glyph glyph-name="iacute" unicode="&#xed;" 
d="M-18 1329q0 47 71 76l236 96q45 19 75 19t52 -29q20 -29 20 -57q1 -47 -71 -76l-236 -96q-45 -18 -76 -18t-51 28q-20 29 -20 57zM299 1006v-922q0 -45 -25 -71q-26 -25 -66 -25t-65 26t-24 70v922q1 44 25 70t65 26t65 -26t25 -70z" />
    <glyph glyph-name="icircumflex" unicode="&#xee;" 
d="M520 1330q0 -42 -20 -64t-48 -23q-28 0 -51 10l-192 76l-193 -76q-22 -10 -50 -10t-48 23t-20 65t47 62l264 112l264 -112q47 -21 47 -63zM299 1006v-922q0 -45 -25 -71q-26 -25 -66 -25t-65 26t-24 70v922q1 44 25 70t65 26t65 -26t25 -70z" />
    <glyph glyph-name="idieresis" unicode="&#xef;" 
d="M289 1348q0 46 32 78q33 32 79 32t78 -33t32 -77t-32 -78q-32 -33 -79 -33t-79 33t-31 78zM-92 1348q0 46 32 78t78 32t79 -33q32 -33 32 -77t-32 -78q-32 -33 -79 -33q-46 0 -78 33t-32 78zM299 1006v-922q0 -45 -25 -71q-26 -25 -66 -25t-65 26t-24 70v922q1 44 25 70
t65 26t65 -26t25 -70z" />
    <glyph glyph-name="eth" unicode="&#xf0;" horiz-adv-x="1101" 
d="M252 537q0 -156 77 -275t222 -119t222 119t77 275q0 157 -77 275t-222 118t-222 -118t-77 -275zM266 1514q0 66 84 67q40 0 120 -37q81 -37 148 -88l189 94q37 18 59 19q49 0 49 -49q0 -37 -43 -60l-159 -78q317 -285 317 -770q0 -284 -124 -454t-352 -170t-355 165
t-127 386t127 386t340 165q75 0 145 -34t113 -89l4 4q-66 178 -248 329l-178 -86q-37 -18 -57 -18t-36 15t-16 43t35 44l158 76q-35 28 -87 50t-79 40t-27 50z" />
    <glyph glyph-name="ntilde" unicode="&#xf1;" horiz-adv-x="1101" 
d="M246 1350q0 40 54 80t120 40t134 -20q69 -20 104 -20q36 0 72 20t60 20t45 -24t21 -64t-54 -80t-120 -40t-134 20q-69 20 -104 20q-36 0 -72 -20t-60 -20t-45 24t-21 64zM119 84v922q1 44 25 70t65 26t65 -26t25 -70v-43l4 -5q113 143 301 144q135 0 252 -91
q57 -46 92 -129t35 -194v-604q0 -45 -25 -71q-26 -25 -66 -25t-65 26t-24 70v594q0 133 -76 201q-76 67 -176 67t-176 -68t-76 -200v-594q0 -45 -25 -71q-26 -25 -66 -25t-65 25q-24 26 -24 71z" />
    <glyph glyph-name="ograve" unicode="&#xf2;" horiz-adv-x="1101" 
d="M395 1520q31 0 76 -19l236 -96q72 -29 71 -76q0 -29 -20 -57t-51 -28t-76 18l-236 96q-72 29 -71 76q0 30 20 58t51 28zM252 545q0 -160 74 -281t226 -121t224 121q74 121 74 281q0 161 -74 281t-226 120t-224 -120q-74 -120 -74 -281zM72 545q0 229 129 393t350 164
t350 -164t129 -393t-129 -393t-350 -164t-350 164t-129 393z" />
    <glyph glyph-name="oacute" unicode="&#xf3;" horiz-adv-x="1101" 
d="M324 1329q0 47 71 76l236 96q45 19 75 19t52 -29q20 -29 20 -57q1 -47 -71 -76l-236 -96q-45 -18 -76 -18t-51 28q-20 29 -20 57zM252 545q0 -160 74 -281t226 -121t224 121q74 121 74 281q0 161 -74 281t-226 120t-224 -120q-74 -120 -74 -281zM72 545q0 229 129 393
t350 164t350 -164t129 -393t-129 -393t-350 -164t-350 164t-129 393z" />
    <glyph glyph-name="ocircumflex" unicode="&#xf4;" horiz-adv-x="1101" 
d="M862 1330q0 -42 -20 -64t-48 -23q-28 0 -51 10l-192 76l-193 -76q-22 -10 -50 -10t-48 23t-20 65t47 62l264 112l264 -112q47 -21 47 -63zM252 545q0 -160 74 -281t226 -121t224 121q74 121 74 281q0 161 -74 281t-226 120t-224 -120q-74 -120 -74 -281zM72 545
q0 229 129 393t350 164t350 -164t129 -393t-129 -393t-350 -164t-350 164t-129 393z" />
    <glyph glyph-name="otilde" unicode="&#xf5;" horiz-adv-x="1101" 
d="M246 1350q0 40 54 80t120 40t134 -20q69 -20 104 -20q36 0 72 20t60 20t45 -24t21 -64t-54 -80t-120 -40t-134 20q-69 20 -104 20q-36 0 -72 -20t-60 -20t-45 24t-21 64zM252 545q0 -160 74 -281t226 -121t224 121q74 121 74 281q0 161 -74 281t-226 120t-224 -120
q-74 -120 -74 -281zM72 545q0 229 129 393t350 164t350 -164t129 -393t-129 -393t-350 -164t-350 164t-129 393z" />
    <glyph glyph-name="odieresis" unicode="&#xf6;" horiz-adv-x="1101" 
d="M631 1348q0 46 33 78q34 32 78 32t77 -33t33 -77t-33 -78q-33 -33 -78 -33t-77 33t-33 78zM250 1348q0 46 33 78t77 32t78 -33q33 -33 33 -77t-33 -78q-33 -33 -78 -33q-46 0 -78 33t-32 78zM252 545q0 -160 74 -281t226 -121t224 121q74 121 74 281q0 161 -74 281
t-226 120t-224 -120q-74 -120 -74 -281zM72 545q0 229 129 393t350 164t350 -164t129 -393t-129 -393t-350 -164t-350 164t-129 393z" />
    <glyph glyph-name="divide" unicode="&#xf7;" horiz-adv-x="1228" 
d="M467 94q0 60 43 104t104 44q60 0 104 -43t44 -105t-43 -104q-43 -43 -105 -43t-104 43q-43 43 -43 104zM467 942q0 60 43 104t104 44q60 0 104 -43t44 -105t-43 -104q-43 -43 -105 -43t-104 43q-43 43 -43 104zM1044 434h-860q-88 0 -88 84t88 84h860q88 0 89 -84
q-1 -84 -89 -84z" />
    <glyph glyph-name="oslash" unicode="&#xf8;" horiz-adv-x="1101" 
d="M551 143q151 0 225 121q74 120 74 262t-41 232l-447 -539q72 -76 189 -76zM551 946q-151 0 -225 -121t-74 -260t41 -233l446 538q-72 76 -188 76zM72 552q0 222 129 386t350 164q172 0 293 -105l84 103q30 39 60 39q30 -1 48 -17q44 -41 -10 -104l-98 -117
q102 -157 102 -371t-129 -378t-350 -164q-172 0 -291 106l-86 -104q-30 -39 -60 -39t-48 17q-43 41 18 112l92 110q-104 140 -104 362z" />
    <glyph glyph-name="ugrave" unicode="&#xf9;" horiz-adv-x="1101" 
d="M395 1520q31 0 76 -19l236 -96q72 -29 71 -76q0 -29 -20 -57t-51 -28t-76 18l-236 96q-72 29 -71 76q0 30 20 58t51 28zM119 422v584q1 44 25 70t65 26t65 -26t25 -70v-578q0 -285 252 -285t252 285v578q1 44 25 70t65 26t65 -26t25 -70v-584q0 -222 -124 -328t-308 -106
t-308 106t-124 328z" />
    <glyph glyph-name="uacute" unicode="&#xfa;" horiz-adv-x="1101" 
d="M324 1329q0 47 71 76l236 96q45 19 75 19t52 -29q20 -29 20 -57q1 -47 -71 -76l-236 -96q-45 -18 -76 -18t-51 28q-20 29 -20 57zM119 422v584q1 44 25 70t65 26t65 -26t25 -70v-578q0 -285 252 -285t252 285v578q1 44 25 70t65 26t65 -26t25 -70v-584q0 -222 -124 -328
t-308 -106t-308 106t-124 328z" />
    <glyph glyph-name="ucircumflex" unicode="&#xfb;" horiz-adv-x="1101" 
d="M862 1330q0 -42 -20 -64t-48 -23q-28 0 -51 10l-192 76l-193 -76q-22 -10 -50 -10t-48 23t-20 65t47 62l264 112l264 -112q47 -21 47 -63zM119 422v584q1 44 25 70t65 26t65 -26t25 -70v-578q0 -285 252 -285t252 285v578q1 44 25 70t65 26t65 -26t25 -70v-584
q0 -222 -124 -328t-308 -106t-308 106t-124 328z" />
    <glyph glyph-name="udieresis" unicode="&#xfc;" horiz-adv-x="1101" 
d="M631 1348q0 46 33 78q34 32 78 32t77 -33t33 -77t-33 -78q-33 -33 -78 -33t-77 33t-33 78zM250 1348q0 46 33 78t77 32t78 -33q33 -33 33 -77t-33 -78q-33 -33 -78 -33q-46 0 -78 33t-32 78zM119 422v584q1 44 25 70t65 26t65 -26t25 -70v-578q0 -285 252 -285t252 285
v578q1 44 25 70t65 26t65 -26t25 -70v-584q0 -222 -124 -328t-308 -106t-308 106t-124 328z" />
    <glyph glyph-name="yacute" unicode="&#xfd;" horiz-adv-x="909" 
d="M682 1434q0 -47 -72 -76l-235 -96q-45 -18 -76 -18t-51 28q-20 29 -21 57q0 47 72 76l236 96q45 19 75 19t52 -29q20 -29 20 -57zM117 1102q70 0 90 -68l250 -747h4l246 747q20 68 86 68q33 0 57 -22t24 -52t-24 -102l-455 -1301q-25 -68 -88 -67q-33 0 -57 22t-25 52
q0 30 27 102l115 305l-308 887q-25 74 -25 104t26 50q24 22 57 22z" />
    <glyph glyph-name="thorn" unicode="&#xfe;" horiz-adv-x="1138" 
d="M127 -346v1831q0 45 25 71q26 26 66 25q40 0 65 -26t24 -70v-533h4q78 150 291 150t339 -164t126 -393t-126 -393t-339 -164q-98 0 -174 44t-117 103h-4v-481q-1 -45 -25 -71q-24 -25 -65 -25t-65 26t-25 70zM289 545q-1 -160 73 -281t226 -121t226 121t73 281
q0 161 -74 281q-73 120 -225 120t-226 -120t-73 -281z" />
    <glyph glyph-name="ydieresis" unicode="&#xff;" horiz-adv-x="909" 
d="M535 1348q-1 46 31 78t79 32t79 -33t32 -77t-32 -78q-32 -33 -79 -33t-79 33q-31 33 -31 78zM154 1348q0 46 32 78t78 32q47 0 79 -33t32 -77t-32 -78q-32 -33 -79 -33t-79 33q-31 33 -31 78zM117 1102q70 0 90 -68l250 -747h4l246 747q20 68 86 68q33 0 57 -22t24 -52
t-24 -102l-455 -1301q-25 -68 -88 -67q-33 0 -57 22t-25 52q0 30 27 102l115 305l-308 887q-25 74 -25 104t26 50q24 22 57 22z" />
    <glyph glyph-name="dotlessi" unicode="&#x131;" 
d="M299 1006v-922q0 -45 -25 -71q-26 -25 -66 -25t-65 26t-24 70v922q1 44 25 70t65 26t65 -26t25 -70z" />
    <glyph glyph-name="Lslash" unicode="&#x141;" horiz-adv-x="796" 
d="M299 168h385q88 0 88 -84t-88 -84h-469q-96 0 -96 98v488l-27 -17q-88 -49 -128 2q-19 25 -19 64t49 65l125 74v600q0 45 24 71q25 25 66 25t65 -26t25 -70v-495l137 77q45 25 77 25q31 0 53 -22q22 -23 22 -63t-49 -69l-240 -137v-522z" />
    <glyph glyph-name="lslash" unicode="&#x142;" 
d="M119 84v498l-43 -43q-33 -33 -68 -33q-36 0 -58 24t-22 56q0 33 35 67l156 156v676q1 45 25 71t65 25q41 0 65 -26t25 -70v-496l43 43q33 33 68 33q36 0 58 -24q53 -57 -13 -123l-156 -156v-678q0 -45 -25 -71q-26 -25 -66 -25t-65 25q-24 26 -24 71z" />
    <glyph glyph-name="OE" unicode="&#x152;" horiz-adv-x="1896" 
d="M1135 98v115h-5q-70 -101 -184 -163t-244 -62q-198 0 -348 108t-220 273q-71 167 -71 361t71 360q70 166 220 274t348 106q248 0 433 -204v94q0 98 96 98h493q88 0 88 -84t-88 -84h-409v-477h395q88 0 88 -84t-88 -84h-395v-477h430q88 0 88 -84t-88 -84h-514
q-96 0 -96 98zM702 143q156 0 261 91q186 163 186 495t-186 495q-105 91 -261 91t-260 -91q-186 -163 -186 -494t186 -496q104 -91 260 -91z" />
    <glyph glyph-name="oe" unicode="&#x153;" horiz-adv-x="1857" 
d="M549 946q-102 0 -173 -63q-124 -110 -124 -337t124 -339q71 -63 173 -63t173 62q124 111 124 338q0 226 -124 339q-71 63 -173 63zM72 545q0 229 128 393t345 164q248 0 395 -213q58 98 158 155t227 58q219 0 349 -160t130 -371q0 -49 -22 -73t-78 -23h-678
q0 -145 89 -237t249 -91q76 2 138 24q62 23 94 49q82 68 115 69q32 2 51 -20q18 -21 20 -61t-60 -92t-163 -90q-102 -38 -203 -38q-293 0 -416 213q-154 -213 -383 -213t-357 164t-128 393zM1026 610h598q0 132 -77 234t-222 102t-222 -102t-77 -234z" />
    <glyph glyph-name="Scaron" unicode="&#x160;" horiz-adv-x="985" 
d="M182 1746q0 42 20 64t49 23q28 0 50 -10l193 -76l192 76q22 10 50 10t48 -23q20 -22 20 -64t-46 -63l-264 -112l-265 112q-47 21 -47 63zM487 1470q139 0 249 -50t110 -120q0 -32 -23 -56q-47 -48 -121 0q-104 71 -212 71q-109 1 -175 -57q-65 -58 -65 -137
q1 -136 137 -199q61 -29 135 -54q74 -24 148 -56t135 -74t99 -116t38 -173q0 -189 -133 -325t-360 -136q-152 0 -279 51t-127 125q0 40 19 66q20 26 50 26t74 -28q135 -85 268 -85q132 0 214 86t82 211q0 80 -52 135t-128 82q-206 72 -333 134q-77 37 -128 115t-51 203
t119 243q120 118 310 118z" />
    <glyph glyph-name="scaron" unicode="&#x161;" horiz-adv-x="909" 
d="M143 1418q1 42 21 65q36 40 98 12l193 -76l192 76q23 10 51 10q28 -1 47 -23q21 -22 21 -64t-47 -62l-264 -113l-265 113q-47 20 -47 62zM94 795q0 141 112 224t247 83t255 -56t119 -137q1 -31 -21 -53t-57 -20q-35 0 -69 28q-105 84 -201 83t-150 -37q-55 -36 -55 -94
t60 -99t146 -72q85 -31 170 -67q86 -36 146 -102q60 -65 60 -152q0 -162 -117 -249t-281 -87t-286 66q-123 66 -123 141q0 37 22 59q47 48 128 -11q132 -100 266 -100q94 0 152 44q59 45 59 103t-60 104t-146 80q-85 34 -170 72q-86 38 -146 102t-60 147z" />
    <glyph glyph-name="Ydieresis" unicode="&#x178;" horiz-adv-x="1024" 
d="M592 1675q0 45 32 78t78 33t79 -33q32 -33 32 -78t-32 -78t-79 -33q-46 0 -78 34q-32 32 -32 77zM211 1675q0 45 32 78t79 33q46 0 78 -33t32 -78t-32 -78t-78 -33t-79 34q-32 32 -32 77zM422 84v600l-391 637q-29 45 -29 77t24 52t68 20t80 -57l338 -551l338 551
q35 57 80 57q44 0 68 -20t24 -52t-29 -77l-391 -637v-600q0 -45 -24 -71q-24 -25 -66 -25q-41 0 -66 25q-24 26 -24 71z" />
    <glyph glyph-name="Zcaron" unicode="&#x17d;" horiz-adv-x="1138" 
d="M258 1746q0 42 20 64t49 23q28 0 50 -10l192 -76l193 76q22 10 50 10t48 -23q20 -22 20 -64t-46 -63l-265 -112l-264 112q-47 21 -47 63zM969 1458q94 0 94 -74q0 -38 -45 -104l-752 -1124h735q39 0 64 -20t25 -58t-25 -58t-64 -20h-845q-106 0 -107 82q0 45 35 96
l750 1125h-662q-40 0 -64 20t-24 57q0 38 25 58t63 20h797z" />
    <glyph glyph-name="zcaron" unicode="&#x17e;" horiz-adv-x="909" 
d="M143 1418q1 42 21 65q36 40 98 12l193 -76l192 76q23 10 51 10q28 -1 47 -23q21 -22 21 -64t-47 -62l-264 -113l-265 113q-47 20 -47 62zM778 156q90 0 90 -78t-90 -78h-649q-88 0 -88 63q0 39 37 93l520 778h-446q-90 0 -91 78q0 78 91 78h606q88 0 88 -64
q0 -39 -37 -92l-526 -774l6 -4h489z" />
    <glyph glyph-name="florin" unicode="&#x192;" horiz-adv-x="1097" 
d="M301 885h129l45 254q31 176 104 254q73 77 212 77t139 -77q0 -66 -117 -66q-69 0 -107 -51t-59 -164l-41 -227h127q33 0 55 -23q22 -24 23 -56q0 -32 -23 -54t-55 -23h-153l-148 -811q-38 -200 -104 -280t-234 -80q-133 0 -133 82q0 76 92 75h84q51 1 79 59t52 195
l135 760h-102q-33 0 -55 23q-22 24 -23 56q1 32 23 54t55 23z" />
    <glyph glyph-name="circumflex" unicode="&#x2c6;" 
d="M520 1330q0 -42 -20 -64t-48 -23q-28 0 -51 10l-192 76l-193 -76q-22 -10 -50 -10t-48 23t-20 65t47 62l264 112l264 -112q47 -21 47 -63z" />
    <glyph glyph-name="caron" unicode="&#x2c7;" 
d="M-102 1418q0 42 20 65q35 41 98 12l193 -76l192 76q23 10 51 10t48 -22q20 -23 20 -65t-47 -62l-264 -113l-264 113q-47 20 -47 62z" />
    <glyph glyph-name="uni02C9" unicode="&#x2c9;" 
d="M2 1411h414q88 0 88 -84t-88 -84h-414q-88 0 -88 84t88 84z" />
    <glyph glyph-name="breve" unicode="&#x2d8;" 
d="M-68 1427q0 31 18 53t42 22q42 -1 91 -59q50 -57 125 -58q76 -1 127 57t83 59q33 1 50 -21t17 -53q0 -84 -91 -141t-185 -57q-93 0 -185 57t-92 141z" />
    <glyph glyph-name="dotaccent" unicode="&#x2d9;" 
d="M98 1348q0 46 33 78t78 32t78 -33t33 -77t-34 -78q-32 -33 -77 -33t-78 33t-33 78z" />
    <glyph glyph-name="ring" unicode="&#x2da;" 
d="M115 1389q-1 -39 27 -67t67 -28t67 28t27 67q0 39 -28 67q-29 28 -67 27q-38 1 -66 -27t-27 -67zM16 1389q0 80 56 136t137 56q80 0 136 -56t56 -136q0 -81 -56 -137t-136 -56q-81 0 -137 56t-56 137z" />
    <glyph glyph-name="ogonek" unicode="&#x2db;" 
d="M354 -254q25 0 57 8t40 8q49 0 49 -47q0 -80 -174 -80q-84 0 -144 40q-59 40 -59 110q0 92 113 172l63 47h109l-54 -49q-76 -70 -75 -139q0 -70 75 -70z" />
    <glyph glyph-name="tilde" unicode="&#x2dc;" 
d="M-96 1350q0 40 54 80t120 40t134 -20q70 -20 104 -20t71 20t61 20t45 -24t21 -64t-54 -80t-120 -40t-134 20q-69 20 -104 20q-36 0 -72 -20t-60 -20t-45 24t-21 64z" />
    <glyph glyph-name="hungarumlaut" unicode="&#x2dd;" 
d="M207 1329q0 47 72 76l235 96q45 19 76 19t51 -29t21 -57q0 -47 -72 -76l-236 -96q-46 -18 -76 -18t-51 28q-20 29 -20 57zM139 1358l-235 -96q-45 -18 -76 -18t-51 28q-20 29 -21 57q0 47 72 76l235 96q45 19 76 19t51 -29t21 -57q0 -47 -72 -76z" />
    <glyph glyph-name="uni03A9" unicode="&#x3a9;" horiz-adv-x="1413" 
d="M381 141v6q-113 107 -187 269t-75 358q0 294 169 486t426 192q256 0 416 -199t160 -469q0 -202 -78 -370t-188 -267v-6h293v-141h-481v102q121 84 201 251q81 167 81 397q0 308 -183 472q-95 85 -224 85q-188 0 -304 -160q-116 -161 -116 -389t83 -403t199 -253v-102
h-481v141h289z" />
    <glyph glyph-name="uni03BC" unicode="&#x3bc;" horiz-adv-x="1101" 
d="M119 -346v1352q1 44 25 70t65 26t65 -26t25 -70v-578q0 -154 56 -220q55 -66 195 -65q140 0 196 66t57 219v578q1 44 25 70t65 26t65 -26t25 -70v-922q0 -45 -25 -71t-65 -25q-68 0 -84 59q-98 -59 -261 -59t-249 94v-428q0 -45 -25 -71q-26 -25 -66 -25t-65 25
q-24 26 -24 71z" />
    <glyph glyph-name="pi" unicode="&#x3c0;" horiz-adv-x="1140" 
d="M932 918v-619q0 -188 29 -299h-162q-35 59 -35 287v631h-340q-10 -217 -51 -498t-92 -420h-164q53 162 93 435t46 483q-152 0 -215 -23l-23 113q86 57 291 57h795l-17 -147h-155z" />
    <glyph glyph-name="uni2010" unicode="&#x2010;" horiz-adv-x="720" 
d="M571 471h-421q-33 0 -56 23q-22 24 -22 56t22 54t56 23h421q33 0 56 -23q23 -24 23 -56t-24 -54q-22 -22 -55 -23z" />
    <glyph glyph-name="endash" unicode="&#x2013;" horiz-adv-x="1024" 
d="M946 471h-868q-34 0 -56 23q-22 24 -22 56t23 54t55 23h868q34 0 56 -23q22 -24 22 -56t-22 -54t-56 -23z" />
    <glyph glyph-name="emdash" unicode="&#x2014;" horiz-adv-x="2048" 
d="M0 627h2048q34 0 56 -23q22 -24 22 -56t-23 -54t-55 -23h-2048q-34 0 -56 23q-22 24 -22 56t22 54t56 23z" />
    <glyph glyph-name="quoteleft" unicode="&#x2018;" 
d="M367 1394q0 -32 -23 -77l-115 -225q-39 -76 -96 -76q-33 0 -57 22t-25 54q0 32 23 77l114 226q39 76 97 75q33 0 57 -22t25 -54z" />
    <glyph glyph-name="quoteright" unicode="&#x2019;" 
d="M367 1394q0 -32 -23 -77l-115 -225q-39 -76 -96 -76q-33 0 -57 22t-25 54q0 32 23 77l114 226q39 76 97 75q33 0 57 -22t25 -54z" />
    <glyph glyph-name="quotesinglbase" unicode="&#x201a;" 
d="M285 197q33 0 57 -23q24 -22 25 -54q0 -32 -23 -77l-115 -225q-39 -76 -96 -76q-33 0 -57 22t-25 55q0 32 23 77l114 225q39 76 97 76z" />
    <glyph glyph-name="quotedblleft" unicode="&#x201c;" horiz-adv-x="684" 
d="M121 1016q-33 0 -58 22t-25 54t23 77l115 226q39 76 96 75q33 0 58 -22q46 -41 2 -131l-115 -225q-39 -76 -96 -76zM412 1016q-33 0 -58 22t-25 54t23 77l115 226q39 76 96 75q33 0 58 -22q46 -41 2 -131l-115 -225q-39 -76 -96 -76z" />
    <glyph glyph-name="quotedblright" unicode="&#x201d;" horiz-adv-x="684" 
d="M121 1016q-33 0 -58 22t-25 54t23 77l115 226q39 76 96 75q33 0 58 -22q46 -41 2 -131l-115 -225q-39 -76 -96 -76zM412 1016q-33 0 -58 22t-25 54t23 77l115 226q39 76 96 75q33 0 58 -22q46 -41 2 -131l-115 -225q-39 -76 -96 -76z" />
    <glyph glyph-name="quotedblbase" unicode="&#x201e;" horiz-adv-x="684" 
d="M272 197q33 0 58 -23q46 -42 2 -131l-115 -225q-39 -76 -96 -76q-33 0 -58 22t-25 55q0 32 23 77l115 225q39 76 96 76zM563 197q33 0 58 -23q46 -42 2 -131l-115 -225q-39 -76 -96 -76q-33 0 -58 22t-25 55q0 32 23 77l115 225q39 76 96 76z" />
    <glyph glyph-name="dagger" unicode="&#x2020;" horiz-adv-x="1253" 
d="M543 963v419q0 88 84 88t84 -88v-419h399q88 0 88 -84t-88 -84h-399v-1149q0 -88 -84 -88t-84 88v1149h-400q-88 0 -88 84t88 84h400z" />
    <glyph glyph-name="daggerdbl" unicode="&#x2021;" horiz-adv-x="1253" 
d="M543 193v643h-400q-88 0 -88 84t88 84h400v378q0 88 84 88t84 -88v-378h399q88 0 88 -84t-88 -84h-399v-643h399q88 0 88 -84t-88 -84h-399v-379q0 -88 -84 -88t-84 88v379h-400q-88 0 -88 84t88 84h400z" />
    <glyph glyph-name="bullet" unicode="&#x2022;" horiz-adv-x="1024" 
d="M147 729q1 152 107 258q106 107 258 107t258 -106t106 -259q0 -152 -106 -258t-258 -106t-258 106t-107 258z" />
    <glyph glyph-name="ellipsis" unicode="&#x2026;" horiz-adv-x="2048" 
d="M1602 92q0 43 30 74q31 31 74 31t74 -31q30 -31 30 -74t-30 -74q-30 -30 -74 -30q-43 0 -74 30q-30 31 -30 74zM920 92q0 43 30 74q31 31 74 31t74 -31q30 -31 30 -74t-30 -74q-30 -30 -74 -30q-43 0 -74 30q-30 31 -30 74zM238 92q0 43 30 74q31 31 74 31t74 -31
q30 -31 30 -74t-30 -74q-30 -30 -74 -30q-43 0 -74 30q-30 31 -30 74z" />
    <glyph glyph-name="perthousand" unicode="&#x2030;" horiz-adv-x="2238" 
d="M1120 1433q0 -19 -28 -94l-545 -1306q-27 -61 -67 -61t-58 16t-18 38t28 93l545 1306q27 61 67 61t58 -16q18 -18 18 -37zM1833 98q90 0 133 71t43 165t-43 165t-133 71t-133 -72q-43 -70 -43 -164t43 -165t133 -71zM1833 -12q-147 0 -229 100t-82 246t82 246t229 100
t229 -100t82 -246t-82 -246t-229 -100zM406 889q90 1 133 71t43 164t-43 165t-133 71t-134 -71t-43 -165q0 -94 43 -165q44 -70 134 -70zM406 778q-148 0 -230 100t-82 246t82 246t230 100t229 -100q82 -100 82 -246t-82 -246t-229 -100zM1116 98q90 0 133 71t43 165
t-43 165t-133 71t-133 -72q-43 -70 -43 -164t43 -165t133 -71zM1116 -12q-147 0 -229 100t-82 246t82 246t229 100q148 0 230 -100t82 -246t-82 -246q-83 -100 -230 -100z" />
    <glyph glyph-name="guilsinglleft" unicode="&#x2039;" horiz-adv-x="530" 
d="M88 549l203 364q31 53 67 53t60 -18q48 -36 2 -117l-170 -282l170 -283q47 -79 -2 -116q-25 -18 -61 -18t-66 52z" />
    <glyph glyph-name="guilsinglright" unicode="&#x203a;" horiz-adv-x="530" 
d="M88 900q0 30 25 48t61 18t66 -53l202 -364l-202 -365q-31 -53 -67 -53q-37 1 -61 19t-24 48t23 68l170 283l-170 282q-23 39 -23 69z" />
    <glyph glyph-name="fraction" unicode="&#x2044;" horiz-adv-x="344" 
d="M530 1430q0 -22 -28 -91l-545 -1306q-27 -61 -67 -61t-58 16t-18 38t28 93l545 1306q27 61 67 61t58 -16q18 -18 18 -40z" />
    <glyph glyph-name="Euro" unicode="&#x20ac;" horiz-adv-x="1097" 
d="M698 -10q-432 0 -499 530h-150l45 137h90q-2 19 -2 73t2 75h-135l45 137h103q70 526 501 526q201 0 312 -84v-176q-102 98 -272 98q-322 1 -361 -364h553l-47 -137h-523q-2 -21 -2 -75t2 -73h471l-47 -137h-407q47 -371 346 -373q176 0 287 99v-178q-94 -78 -312 -78z
" />
    <glyph glyph-name="afii61289" unicode="&#x2113;" horiz-adv-x="970" 
d="M377 1100v-422q291 332 291 575q0 207 -136 207q-63 0 -109 -87t-46 -273zM551 -2q-164 0 -245 103t-89 270v24q-25 -18 -113 -92l-49 96q135 117 160 142v553q0 256 91 374t219 119q127 0 191 -93t64 -243q0 -334 -403 -741v-74q2 -154 60 -228q57 -74 145 -75
q88 1 156 57t112 136l76 -72q-129 -256 -375 -256z" />
    <glyph glyph-name="trademark" unicode="&#x2122;" horiz-adv-x="2027" 
d="M971 688v645q0 137 129 137q104 0 137 -79l205 -535l200 535q33 80 138 79q129 0 129 -137v-645q0 -34 -23 -56q-24 -22 -56 -22t-54 23t-23 55v590h-4l-221 -592q-29 -76 -88 -76t-88 76l-222 592h-4v-590q0 -34 -22 -56t-56 -22q-32 0 -54 22t-23 56zM379 698v625h-195
q-66 0 -65 68q0 68 65 67h557q66 0 66 -68t-66 -67h-194v-625q0 -88 -84 -88t-84 88z" />
    <glyph glyph-name="Omega" unicode="&#x2126;" horiz-adv-x="1413" 
d="M381 141v6q-113 107 -187 269t-75 358q0 294 169 486t426 192q256 0 416 -199t160 -469q0 -202 -78 -370t-188 -267v-6h293v-141h-481v102q121 84 201 251q81 167 81 397q0 308 -183 472q-95 85 -224 85q-188 0 -304 -160q-116 -161 -116 -389t83 -403t199 -253v-102
h-481v141h289z" />
    <glyph glyph-name="estimated" unicode="&#x212e;" horiz-adv-x="1787" 
d="M1413 762v405q0 29 -18 47q-217 211 -504 211t-500 -217q-18 -18 -18 -51v-395q0 -14 10 -14h1022q8 0 8 14zM1716 709h-1333q-10 0 -10 -9v-403q0 -27 16 -47q213 -219 517 -219t519 245h117q-110 -134 -282 -210t-369 -76q-340 0 -581 216q-240 216 -240 523t240 524
q241 217 582 217t583 -217t241 -526v-18z" />
    <glyph glyph-name="partialdiff" unicode="&#x2202;" horiz-adv-x="1091" 
d="M483 139h2q129 0 215 150t107 358q-25 78 -98 145q-75 66 -183 66t-192 -115t-84 -267t64 -245q65 -92 169 -92zM493 1618q203 0 351 -200t149 -576q0 -376 -137 -610t-387 -234q-184 0 -285 140q-100 140 -100 353t124 359t298 145q117 0 201 -60t116 -122h2q2 20 2 84
q0 252 -104 416q-103 163 -251 163t-269 -98l-56 127q143 113 346 113z" />
    <glyph glyph-name="uni2206" unicode="&#x2206;" horiz-adv-x="1284" 
d="M231 139h809l-270 748q-10 35 -62 180t-65 199h-8q-10 -41 -55 -169t-60 -179zM61 0v113l486 1351h196l478 -1349v-115h-1160z" />
    <glyph glyph-name="product" unicode="&#x220f;" horiz-adv-x="1392" 
d="M1339 1274h-213v-1471h-165v1471h-531v-1471h-166v1471h-213v156h1288v-156z" />
    <glyph glyph-name="summation" unicode="&#x2211;" horiz-adv-x="1097" 
d="M1053 -197h-1006v113l522 698l-501 695v121h954v-148h-723v-6l461 -635l-502 -670v-8h795v-160z" />
    <glyph glyph-name="minus" unicode="&#x2212;" horiz-adv-x="1228" 
d="M1044 434h-860q-88 0 -88 84t88 84h860q88 0 89 -84q-1 -84 -89 -84z" />
    <glyph glyph-name="uni2215" unicode="&#x2215;" horiz-adv-x="344" 
d="M530 1430q0 -22 -28 -91l-545 -1306q-27 -61 -67 -61t-58 16t-18 38t28 93l545 1306q27 61 67 61t58 -16q18 -18 18 -40z" />
    <glyph glyph-name="uni2219" unicode="&#x2219;" horiz-adv-x="512" 
d="M145 621q0 47 32 79t79 31q47 0 79 -32q32 -33 32 -79t-32 -78t-79 -32t-79 32t-32 79z" />
    <glyph glyph-name="radical" unicode="&#x221a;" horiz-adv-x="1144" 
d="M1145 1702l-440 -2003h-146l-311 940l-150 -57l-30 102l284 111l242 -736q25 -101 37 -155h2q12 74 26 157l363 1641h123z" />
    <glyph glyph-name="infinity" unicode="&#x221e;" horiz-adv-x="1554" 
d="M1149 807h-2q-97 0 -206 -109q-23 -20 -57 -60t-42 -48q106 -123 171 -171t147 -48q82 -1 134 65q54 66 54 158t-56 152t-143 61zM418 371h2q55 0 92 21q37 22 53 32t45 38t38 37t40 43t35 38q-143 179 -223 211q-43 16 -94 16q-90 0 -144 -66q-54 -65 -53 -157
q0 -92 58 -153q59 -60 151 -60zM1454 594v-2q0 -144 -92 -234t-200 -90t-191 56q-84 56 -191 180q-96 -113 -181 -174q-85 -62 -203 -62t-207 91t-89 229t90 228q90 91 228 91q102 0 189 -62t179 -173q117 129 175 170q93 66 211 64t200 -87q82 -86 82 -225z" />
    <glyph glyph-name="integral" unicode="&#x222b;" horiz-adv-x="731" 
d="M584 1624q-154 0 -154 -412q0 -158 13 -502t14 -517q0 -281 -82 -414q-66 -113 -209 -113q-80 0 -135 33l28 125q49 -25 97 -25q147 0 147 394q0 172 -13 523q-14 351 -14 518t25 269t84 164q76 82 197 82q65 0 110 -27l-24 -118q-33 20 -84 20z" />
    <glyph glyph-name="approxequal" unicode="&#x2248;" horiz-adv-x="1114" 
d="M772 387q55 0 96 36t88 114l66 -60q-96 -195 -258 -194q-55 0 -100 18q-46 18 -148 77q-102 58 -164 58t-106 -39q-43 -39 -90 -112l-68 57q45 90 118 143t145 53t112 -16q39 -18 79 -41t45 -25t27 -14q22 -14 31 -18l28 -14q44 -23 99 -23zM350 885q73 0 118 -20t77 -38
q31 -18 41 -23t36 -19q26 -15 42 -23t26 -11t27 -9t53 -7q100 1 186 148l66 -58q-96 -195 -258 -194q-55 0 -102 18q-48 18 -146 76q-98 57 -162 57t-107 -38q-42 -38 -91 -111l-68 57q45 90 117 142t145 53z" />
    <glyph glyph-name="notequal" unicode="&#x2260;" horiz-adv-x="1114" 
d="M1012 831v-106h-344l-133 -289h477v-106h-518l-105 -234l-86 37l90 197h-293v106h336l129 289h-465v106h506l105 230l84 -37l-86 -193h303z" />
    <glyph glyph-name="lessequal" unicode="&#x2264;" horiz-adv-x="1114" 
d="M1012 10h-910v111h910v-111zM1006 201l-893 452v115l893 453v-129l-783 -377v-4l783 -381v-129z" />
    <glyph glyph-name="greaterequal" unicode="&#x2265;" horiz-adv-x="1114" 
d="M1010 10h-908v111h908v-111zM115 1221l893 -453v-115l-893 -452v129l780 379v4l-780 379v129z" />
    <glyph glyph-name="lozenge" unicode="&#x25ca;" horiz-adv-x="1144" 
d="M883 709l-271 555q-29 68 -37 112h-6q-20 -68 -39 -112l-270 -547l272 -559q27 -61 35 -109h8q14 63 35 107zM1036 713l-399 -805h-137l-394 805l400 807h137z" />
    <glyph glyph-name="fi" unicode="&#xfb01;" horiz-adv-x="948" 
d="M356 934v-850q0 -45 -24 -71q-24 -25 -66 -25t-66 26t-24 70v850h-74q-90 0 -90 78t90 78h74v256q0 113 68 174t172 61h55q39 1 71 -21t31 -57q0 -78 -98 -78h-45q-74 0 -74 -71v-264h113q90 0 90 -78t-90 -78h-113zM629 1360q0 45 31 78q32 32 79 32t79 -32t32 -78
q0 -45 -32 -78t-79 -33t-79 33q-31 33 -31 78zM829 1006v-922q-1 -45 -25 -71q-24 -25 -65 -25t-65 26t-25 70v922q0 44 25 70q26 26 66 26t64 -26t25 -70z" />
    <glyph glyph-name="fl" unicode="&#xfb02;" horiz-adv-x="948" 
d="M829 1485v-1401q-1 -45 -25 -71q-24 -25 -65 -25t-65 26t-25 70v1401q0 45 25 71q26 26 66 25q40 1 64 -25t25 -71zM356 934v-850q0 -45 -24 -71q-24 -25 -66 -25t-66 26t-24 70v850h-74q-90 0 -90 78t90 78h74v256q0 113 68 174t172 61h55q39 1 71 -21t31 -57
q0 -78 -98 -78h-45q-74 0 -74 -71v-264h113q90 0 90 -78t-90 -78h-113z" />
    <glyph glyph-name="a.superior" horiz-adv-x="739" 
d="M377 924q76 0 123 62t47 150t-47 149q-47 63 -123 63t-123 -62t-47 -150t47 -150t123 -62zM680 1417v-563q0 -53 -68 -53t-67 53v33h-4q-63 -86 -170 -86q-139 0 -226 95q-86 96 -86 240t86 239t226 95q106 0 170 -86h4v33q-1 53 67 53t68 -53z" />
    <glyph glyph-name="o.superior" horiz-adv-x="716" 
d="M195 1136q0 -88 46 -150q45 -62 117 -62t118 62t46 150t-46 149q-46 63 -118 63t-118 -62t-45 -150zM358 1470q140 0 226 -95t86 -239t-85 -240t-225 -95q-140 -1 -227 95q-86 96 -86 240t86 239t225 95z" />
    <glyph glyph-name="one.superior" horiz-adv-x="468" 
d="M178 1335h-104q-58 -1 -58 61t58 62h213q39 0 39 -28v-773q0 -74 -74 -73q-30 0 -52 18t-22 55v678z" />
    <glyph glyph-name="two.superior" horiz-adv-x="712" 
d="M571 719q78 1 78 -61t-78 -62h-446q-31 0 -46 13q-31 27 9 77l350 444q53 68 54 115q0 47 -36 75t-103 28t-115 -54t-50 -114q0 -49 -59 -50q-63 0 -63 68q0 113 80 193q80 79 216 79t206 -63t71 -151q0 -88 -74 -179l-297 -358h303z" />
    <glyph glyph-name="three.superior" horiz-adv-x="712" 
d="M86 1257q0 93 66 153t188 60t192 -64t70 -161q0 -125 -113 -186q78 -23 120 -79t42 -132q0 -121 -91 -193q-91 -71 -221 -71t-204 68t-74 140q0 73 58 72q37 0 59 -51q49 -106 166 -106q66 0 113 45t47 110q0 129 -137 129q-57 -1 -75 13t-20 40q0 26 14 37t64 23
q106 24 105 135q0 43 -35 76t-92 33t-90 -30t-41 -71q-7 -47 -59 -47t-52 57z" />
    </font>
</defs>
</svg>
