<?xml version="1.0" standalone="no"?>
<!DOCTYPE svg PUBLIC "-//W3C//DTD SVG 1.1//EN" "http://www.w3.org/Graphics/SVG/1.1/DTD/svg11.dtd" >
<svg xmlns="http://www.w3.org/2000/svg">
<metadata></metadata>
<defs>
<font id="vagrounded" horiz-adv-x="417" >
<font-face units-per-em="2048" ascent="1638" descent="-410" />
<missing-glyph horiz-adv-x="512" />
<glyph horiz-adv-x="2048" />
<glyph horiz-adv-x="2048" />
<glyph unicode="&#xd;" horiz-adv-x="2048" />
<glyph unicode=" "  horiz-adv-x="512" />
<glyph unicode="&#x09;" horiz-adv-x="512" />
<glyph unicode="&#xa0;" horiz-adv-x="512" />
<glyph unicode="!" horiz-adv-x="606" d="M199 92q0 43 30.5 74t73.5 31t74 -31t31 -74t-31 -73.5t-74 -30.5t-73.5 30.5t-30.5 73.5zM213 487v887q0 44 24.5 70t65.5 26t65.5 -26t24.5 -70v-887q0 -44 -24.5 -70t-65.5 -26t-65.5 26t-24.5 70z" />
<glyph unicode="&#x22;" horiz-adv-x="684" d="M113 1104v278q0 40 21.5 64t62.5 24t62.5 -24t21.5 -64v-278q0 -40 -21.5 -64t-62.5 -24t-62.5 24t-21.5 64zM403 1104v278q0 40 21.5 64t62.5 24t62.5 -24t21.5 -64v-278q0 -40 -21.5 -64t-62.5 -24t-62.5 24t-21.5 64z" />
<glyph unicode="#" horiz-adv-x="1097" d="M29 510q0 34 23.5 51t60.5 17h143l43 303h-125q-37 0 -60.5 17.5t-23.5 49.5q0 33 23.5 50.5t60.5 17.5h143l54 381q5 37 22.5 55t55.5 18q35 0 52 -19.5t17 -49.5q0 -21 -10 -86l-41 -299h244l53 381q5 37 22.5 55t55.5 18q35 0 52 -19.5t17 -49.5q0 -21 -10 -86 l-41 -299h125q37 0 60.5 -17.5t23.5 -50.5q0 -34 -23 -50.5t-61 -16.5h-143l-43 -303h125q37 0 60.5 -17.5t23.5 -50.5t-23.5 -50.5t-60.5 -17.5h-144l-53 -381q-5 -37 -22.5 -55t-55.5 -18q-35 0 -52 19.5t-17 49.5q0 21 10 86l41 299h-244l-53 -381q-5 -37 -22.5 -55 t-55.5 -18q-35 0 -52.5 19.5t-17.5 49.5q0 15 11 86l41 299h-125q-37 0 -60.5 17.5t-23.5 50.5zM406 578h243l43 303h-243z" />
<glyph unicode="$" horiz-adv-x="985" d="M43 170q0 35 19.5 60.5t52.5 25.5q24 0 58.5 -17.5t67 -39t88 -39t117.5 -17.5v568q-44 15 -63 21.5t-60 22.5t-61 27t-54 31t-51 38t-39.5 45t-33.5 55.5t-19 65.5t-8 79q0 62 27 124t75 115t123 90t164 45v97q0 19 11.5 31t31.5 12t31.5 -12t11.5 -31v-97 q126 -9 220 -58t94 -112q0 -33 -22.5 -56t-55.5 -23q-29 0 -59.5 19t-75 43t-101.5 32v-449h1l1 -1h1h1l1 -1h1h1l1 -1h1l1 -1h1q160 -57 229 -101q164 -104 170 -297v-15q0 -172 -109.5 -300.5t-300.5 -152.5v-105q0 -19 -11.5 -31t-31.5 -12t-31.5 12t-11.5 31v97 q-101 0 -195.5 27t-151 69.5t-56.5 85.5zM250 1108q0 -79 50 -126t146 -83v416q-87 -11 -141.5 -67t-54.5 -140zM532 154q102 22 160 99t58 187q0 93 -57 147t-161 93v-526z" />
<glyph unicode="%" horiz-adv-x="1517" d="M86 1124q0 93 34 170.5t106 126.5t171 49t171 -49t106.5 -126.5t34.5 -170.5t-34.5 -170.5t-106.5 -126.5t-171 -49t-171 49t-106 126.5t-34 170.5zM221 1124q0 -43 9.5 -83t29 -75t55 -56t82.5 -21t82.5 21t55 56t29 75t9.5 83t-9.5 83t-29 75.5t-55 56.5t-82.5 21 t-82.5 -21t-55 -56.5t-29 -75.5t-9.5 -83zM399 27q0 23 29 92l545 1306q26 62 71 62q34 0 53 -17t19 -38t-29 -93l-544 -1306q-14 -33 -31.5 -47.5t-44.5 -14.5q-32 0 -50 17t-18 39zM809 334q0 93 34 170.5t106 126.5t171 49t171 -49t106.5 -126.5t34.5 -170.5 t-34.5 -170.5t-106.5 -126.5t-171 -49t-171 49t-106 126.5t-34 170.5zM944 334q0 -43 9.5 -83t29 -75.5t55 -56.5t82.5 -21t82.5 21t55 56.5t29 75.5t9.5 83t-9.5 83t-29 75t-55 56t-82.5 21t-82.5 -21t-55 -56t-29 -75t-9.5 -83z" />
<glyph unicode="&#x26;" horiz-adv-x="1366" d="M74 412q0 91 21 160.5t67 126t99 98t138 92.5q-161 165 -161 285q0 152 98 224t258 72q131 0 225 -73.5t94 -184.5q0 -67 -21.5 -123t-62 -99.5t-81 -73.5t-97.5 -62l326 -385l12 16q31 42 76.5 116t72.5 106t54 32q33 0 54.5 -16t21.5 -45q0 -99 -191 -328l178 -211 q37 -43 37 -78q0 -32 -21 -52.5t-52 -20.5q-45 0 -70 32l-176 203q-187 -235 -451 -235q-121 0 -221.5 49t-163.5 147t-63 228zM254 432q0 -121 73 -198.5t212 -77.5q95 0 171.5 42t161.5 144l-372 430q-138 -79 -192 -157.5t-54 -182.5zM418 1178q0 -29 21.5 -67t44 -65 t69.5 -79q192 110 192 215q0 69 -49 107t-116 38q-70 0 -116 -38.5t-46 -110.5z" />
<glyph unicode="'" d="M125 1104v278q0 40 21.5 64t62.5 24t62.5 -24t21.5 -64v-278q0 -40 -21.5 -64t-62.5 -24t-62.5 24t-21.5 64z" />
<glyph unicode="(" horiz-adv-x="493" d="M133 651q0 211 31 412.5t88 351.5q34 92 90 92q35 0 53.5 -17t18.5 -42q0 -11 -3 -24.5t-6 -24t-9.5 -29.5t-10.5 -31q-84 -266 -84 -688t84 -688q4 -12 10.5 -31t9.5 -29t6 -23.5t3 -24.5q0 -25 -18.5 -42.5t-53.5 -17.5q-56 0 -90 92q-57 150 -88 351.5t-31 412.5z" />
<glyph unicode=")" horiz-adv-x="493" d="M80 -145q0 14 3.5 28.5t13 41.5t12.5 38q84 266 84 688t-84 688q-4 12 -10.5 31t-9.5 29.5t-6 24t-3 24.5q0 25 18.5 42t53.5 17q56 0 90 -92q56 -149 87 -351t31 -413t-31 -413t-87 -351q-34 -92 -90 -92q-35 0 -53.5 17.5t-18.5 42.5z" />
<glyph unicode="*" horiz-adv-x="798" d="M78 967q0 24 8.5 38.5t38.5 26.5l182 76l-182 76q-30 12 -38.5 26.5t-8.5 38.5q0 28 21 49t51 21q23 0 52 -19t74.5 -57.5t71.5 -56.5q0 39 -11 113.5t-11 99.5q0 30 19.5 50.5t53.5 20.5t54 -20.5t20 -50.5q0 -25 -11 -99.5t-11 -113.5q26 18 71.5 56.5t74.5 57.5t52 19 q30 0 51 -21t21 -49q0 -24 -8.5 -38.5t-38.5 -26.5l-182 -76l182 -76q30 -12 38.5 -26.5t8.5 -38.5q0 -28 -21 -49t-51 -21q-23 0 -52 19t-74.5 57.5t-71.5 56.5q0 -39 11 -113.5t11 -99.5q0 -30 -20 -51t-54 -21t-53.5 20.5t-19.5 51.5q0 25 11 99.5t11 113.5 q-26 -18 -71.5 -56.5t-74.5 -57.5t-52 -19q-30 0 -51 21t-21 49z" />
<glyph unicode="+" horiz-adv-x="1228" d="M96 518q0 41 24 62.5t64 21.5h346v346q0 40 21.5 64t62.5 24t62.5 -24t21.5 -64v-346h346q40 0 64.5 -21.5t24.5 -62.5t-24.5 -62.5t-64.5 -21.5h-346v-346q0 -40 -21.5 -64t-62.5 -24t-62.5 24t-21.5 64v346h-346q-40 0 -64 21.5t-24 62.5z" />
<glyph unicode="," horiz-adv-x="512" d="M45 -180q0 29 23 76l114 225q19 36 40 56t57 20q33 0 57 -22.5t24 -55.5q0 -31 -22 -76l-115 -225q-19 -37 -39.5 -56.5t-56.5 -19.5q-33 0 -57.5 22.5t-24.5 55.5z" />
<glyph unicode="-" horiz-adv-x="720" d="M72 549q0 32 23 55t55 23h421q32 0 55 -23t23 -55t-23 -55t-55 -23h-421q-32 0 -55 23t-23 55z" />
<glyph unicode="." horiz-adv-x="512" d="M152 92q0 43 30.5 74t73.5 31t73.5 -31t30.5 -74t-30.5 -73.5t-73.5 -30.5t-73.5 30.5t-30.5 73.5z" />
<glyph unicode="/" horiz-adv-x="833" d="M41 63q0 26 29 91l559 1255q26 61 84 61q36 0 58 -20t22 -55q0 -25 -29 -90l-559 -1256q-26 -61 -84 -61q-36 0 -58 20t-22 55z" />
<glyph unicode="0" horiz-adv-x="1097" d="M68 729q0 172 37.5 313t103 234t153 143.5t187.5 50.5t187.5 -50.5t153 -143.5t103 -234t37.5 -313t-37.5 -313t-103 -234t-153 -143.5t-187.5 -50.5t-187.5 50.5t-153 143.5t-103 234t-37.5 313zM260 729q0 -292 80.5 -439t208.5 -147t208.5 147t80.5 439t-80.5 439 t-208.5 147t-208.5 -147t-80.5 -439z" />
<glyph unicode="1" horiz-adv-x="720" d="M70 1380q0 32 22.5 55t54.5 23h314q30 0 42.5 -9t12.5 -40v-1325q0 -44 -24.5 -70t-65.5 -26t-65.5 26t-24.5 70v1219h-189q-32 0 -54.5 22.5t-22.5 54.5z" />
<glyph unicode="2" horiz-adv-x="1097" d="M104 1014q0 92 31 173.5t88 145t146.5 100.5t199.5 37q175 0 284.5 -107.5t109.5 -254.5q0 -80 -19 -149t-82 -152l-489 -651h553q32 0 55 -23t23 -55t-23 -55t-55 -23h-707q-51 0 -74.5 22.5t-23.5 51.5q0 28 39 82l504 673q106 139 106 258q0 99 -66 163.5t-165 64.5 q-126 0 -196.5 -93.5t-70.5 -236.5q0 -44 -22.5 -63t-56.5 -19q-89 0 -89 111z" />
<glyph unicode="3" horiz-adv-x="1097" d="M84 324q0 46 21.5 73t54.5 27q39 0 61.5 -22.5t38.5 -71.5q63 -187 246 -187q120 0 198 78.5t78 192.5q0 272 -254 272q-53 0 -81.5 21t-28.5 57q0 31 21.5 49.5t72.5 28.5q109 25 157 80t48 155q0 105 -57 171.5t-150 66.5q-68 0 -114.5 -31t-67 -76.5t-25.5 -105.5 q-2 -29 -11 -47.5t-23.5 -25.5t-25 -9t-26.5 -2q-37 0 -59.5 24t-22.5 60q0 153 104 260.5t279 107.5q170 0 274.5 -109t104.5 -267q0 -94 -44 -176.5t-128 -133.5q120 -36 185 -131t65 -223q0 -134 -62.5 -236t-167 -154t-235.5 -52q-86 0 -160 24.5t-121.5 62t-81.5 84 t-48.5 88.5t-14.5 77z" />
<glyph unicode="4" horiz-adv-x="1097" d="M25 438q0 33 45 105l516 846q27 45 60 63t81 18q63 0 100 -36.5t37 -112.5v-791h92q32 0 55 -22.5t23 -54.5t-23 -55t-55 -23h-92v-291q0 -44 -24.5 -70t-65.5 -26t-65.5 26t-24.5 70v291h-582q-43 0 -60 16.5t-17 46.5zM250 530h434v748h-4z" />
<glyph unicode="5" horiz-adv-x="1097" d="M90 229q0 31 17 54.5t49 23.5q20 0 44 -15.5t51 -37.5t60 -44.5t83 -38t108 -15.5q126 0 202 91.5t76 223.5q0 137 -63 223t-189 86q-58 0 -108.5 -14t-85 -27.5t-53.5 -13.5q-31 0 -46.5 15.5t-15.5 39.5q0 16 14 121l76 510q4 27 19.5 37t48.5 10h506q32 0 55 -23 t23 -55t-23 -54.5t-55 -22.5h-416l-59 -396q78 41 192 41q110 0 196.5 -63.5t131.5 -163.5t45 -215q0 -237 -126.5 -377.5t-346.5 -140.5q-86 0 -165.5 25t-131 62.5t-82.5 78.5t-31 75z" />
<glyph unicode="6" horiz-adv-x="1097" d="M106 489q0 123 32.5 244t82.5 218t119.5 190.5t135 160.5t138.5 128q48 40 84 40q25 0 49.5 -23t24.5 -61q0 -21 -15.5 -40.5t-56.5 -55.5q-94 -84 -164 -172t-149 -233h4q111 57 232 57q115 0 200 -67.5t126.5 -174.5t41.5 -237q0 -131 -57 -239.5t-160 -172t-229 -63.5 q-191 0 -315 141.5t-124 359.5zM287 471q0 -88 26 -157.5t85 -113.5t145 -44t145 44t85 113.5t26 157.5q0 150 -63 232.5t-193 82.5q-126 0 -191 -89.5t-65 -225.5z" />
<glyph unicode="7" horiz-adv-x="1024" d="M57 1380q0 32 23 55t55 23h739q93 0 93 -57q0 -31 -35 -109l-545 -1239q-29 -65 -108 -65q-23 0 -45.5 18.5t-22.5 50.5q0 30 29 97l510 1144v5h-615q-32 0 -55 22.5t-23 54.5z" />
<glyph unicode="8" horiz-adv-x="1097" d="M102 449q0 132 70.5 234t194.5 130q-101 63 -146 136.5t-45 187.5q0 65 21 120t57 93.5t84 66t101.5 40.5t109.5 13t109.5 -13t101.5 -40.5t84 -66t57 -93.5t21 -120q0 -114 -45 -187.5t-146 -136.5q124 -28 194 -130t70 -234q0 -90 -30 -172.5t-85.5 -147t-141 -103 t-189.5 -38.5q-137 0 -241 66.5t-155 170t-51 224.5zM295 440q0 -136 74 -216.5t180 -80.5t180 80.5t74 216.5q0 120 -67 205.5t-187 85.5t-187 -85.5t-67 -205.5zM344 1102q0 -96 55 -155.5t150 -59.5t150 59.5t55 155.5q0 94 -55 153.5t-150 59.5t-150 -59.5t-55 -153.5z " />
<glyph unicode="9" horiz-adv-x="1097" d="M106 995q0 131 57.5 239.5t160 172t229.5 63.5q191 0 314.5 -141.5t123.5 -359.5q0 -123 -32.5 -243.5t-82 -217.5t-119.5 -190.5t-135.5 -160.5t-138.5 -128q-49 -41 -84 -41q-25 0 -49 23t-24 61q0 21 15 40.5t56 55.5q95 84 165 172.5t149 232.5h-4q-111 -57 -232 -57 q-115 0 -200.5 67.5t-127 174.5t-41.5 237zM299 987q0 -150 63 -232.5t193 -82.5q126 0 191 89.5t65 225.5q0 88 -26 157.5t-85 114t-145 44.5t-145 -44.5t-85 -114t-26 -157.5z" />
<glyph unicode=":" horiz-adv-x="512" d="M152 92q0 43 30.5 74t73.5 31t73.5 -31t30.5 -74t-30.5 -73.5t-73.5 -30.5t-73.5 30.5t-30.5 73.5zM152 780q0 43 30.5 74t73.5 31t73.5 -31t30.5 -74t-30.5 -73.5t-73.5 -30.5t-73.5 30.5t-30.5 73.5z" />
<glyph unicode=";" horiz-adv-x="512" d="M45 -180q0 29 23 76l114 225q19 36 40 56t57 20q33 0 57 -22.5t24 -55.5q0 -31 -22 -76l-115 -225q-19 -37 -39.5 -56.5t-56.5 -19.5q-33 0 -57.5 22.5t-24.5 55.5zM152 780q0 43 30.5 74t73.5 31t73.5 -31t30.5 -74t-30.5 -73.5t-73.5 -30.5t-73.5 30.5t-30.5 73.5z" />
<glyph unicode="&#x3c;" horiz-adv-x="1228" d="M94 518q0 31 17 52.5t57 41.5l799 400q80 37 100 37q27 0 47.5 -22t20.5 -54q0 -15 -5.5 -27.5t-16.5 -22t-20 -15t-24 -13.5l-762 -377l762 -377q15 -8 24 -13.5t20 -15t16.5 -22t5.5 -27.5q0 -32 -20.5 -53.5t-47.5 -21.5q-20 0 -100 37l-799 399q-40 20 -57 41.5 t-17 52.5z" />
<glyph unicode="=" horiz-adv-x="1228" d="M96 305q0 41 24 62.5t64 21.5h860q40 0 64.5 -21.5t24.5 -62.5t-24.5 -62.5t-64.5 -21.5h-860q-40 0 -64 21.5t-24 62.5zM96 731q0 41 24 62.5t64 21.5h860q40 0 64.5 -21.5t24.5 -62.5t-24.5 -62.5t-64.5 -21.5h-860q-40 0 -64 21.5t-24 62.5z" />
<glyph unicode="&#x3e;" horiz-adv-x="1228" d="M94 63q0 15 5.5 27.5t16.5 22t20 15t24 13.5l762 377l-762 377q-15 8 -24 13.5t-20 15t-16.5 22t-5.5 27.5q0 32 20.5 54t47.5 22q20 0 100 -37l799 -400q40 -20 57 -41.5t17 -52.5t-17 -52.5t-57 -41.5l-799 -399q-80 -37 -100 -37q-27 0 -47.5 21.5t-20.5 53.5z" />
<glyph unicode="?" horiz-adv-x="909" d="M37 1161q6 130 128 219.5t271 89.5q187 0 311.5 -107t124.5 -269q0 -161 -92.5 -265t-251.5 -137v-205q0 -44 -24.5 -70t-65.5 -26t-65.5 26t-24.5 70v232q0 27 0.5 40.5t5.5 29.5t13 23t25 16t40 14.5t60 13.5q188 38 188 221q0 103 -67 164.5t-171 61.5q-87 0 -146 -38 t-91 -130q-13 -38 -32 -53t-48 -15q-37 0 -63 26.5t-25 67.5zM334 92q0 43 30.5 74t73.5 31t74 -31t31 -74t-31 -73.5t-74 -30.5t-73.5 30.5t-30.5 73.5z" />
<glyph unicode="@" horiz-adv-x="1638" d="M74 729q0 153 61.5 291t166 236t247 156t299.5 58q193 0 356.5 -76t262 -217t98.5 -317q0 -114 -35.5 -211t-91 -161.5t-124.5 -110t-134.5 -66t-122.5 -20.5q-124 0 -144 117h-4q-45 -50 -108 -83.5t-127 -33.5q-131 0 -220 94t-89 227q0 98 34 193t93 170t147 121.5 t188 46.5q166 0 240 -154l27 82q10 33 29.5 46t52.5 13q28 0 46.5 -11t18.5 -34q0 -16 -16 -73l-127 -439q-17 -62 -17 -84q0 -59 58 -59q65 0 127.5 57t102.5 152t40 197q0 153 -80 268.5t-206 173t-275 57.5q-130 0 -245.5 -47.5t-197 -128.5t-129 -193t-47.5 -237 q0 -175 83.5 -314t229 -215.5t324.5 -76.5q81 0 152 16.5t117.5 41.5t88.5 54.5t70 54.5t58.5 41.5t56.5 16.5q22 0 36.5 -13t14.5 -34q0 -42 -58 -96.5t-144 -102.5t-197.5 -81t-208.5 -33q-213 0 -391.5 97.5t-282.5 268t-104 375.5zM545 631q0 -80 49 -132.5t119 -52.5 q58 0 106.5 30t79.5 75.5t52.5 100.5t30.5 103t9 85q0 147 -153 147q-70 0 -128 -33.5t-93 -87t-53.5 -114.5t-18.5 -121z" />
<glyph unicode="A" horiz-adv-x="1253" d="M20 63q0 16 25 91l453 1206q40 110 129 110t129 -110l452 -1206q25 -75 25 -91q0 -34 -24.5 -54.5t-61.5 -20.5q-64 0 -88 67l-94 262h-676l-94 -262q-24 -67 -89 -67q-37 0 -61.5 20.5t-24.5 54.5zM344 473h565l-280 789h-4z" />
<glyph unicode="B" horiz-adv-x="1099" d="M119 98v1262q0 44 23.5 71t72.5 27h317q93 0 170 -31t124.5 -81t73.5 -111t26 -125q0 -118 -56 -204.5t-147 -114.5v-5q134 -14 224.5 -115.5t90.5 -244.5q0 -87 -32 -163.5t-91 -135.5t-150.5 -93t-203.5 -34h-346q-49 0 -72.5 27t-23.5 71zM299 156h254q133 0 219 75 t86 195q0 116 -80 192t-217 76h-262v-538zM299 842h205q112 0 176.5 66t64.5 169t-59.5 164.5t-175.5 61.5h-211v-461z" />
<glyph unicode="C" horiz-adv-x="1214" d="M63 729q0 115 25.5 222.5t79 202t129.5 165t183 111t233 40.5q91 0 173.5 -22.5t135 -56t83 -69.5t30.5 -65q0 -36 -20.5 -61t-53.5 -25q-22 0 -45.5 15t-48.5 36t-57 42t-83 36t-114 15q-94 0 -171.5 -34.5t-129.5 -91.5t-88 -133.5t-52 -158.5t-16 -168t16.5 -168.5 t52 -158.5t86.5 -133.5t126 -91.5t165 -34q74 0 142 20.5t108 45t79 45t63 20.5q32 0 51.5 -23t19.5 -61q0 -72 -139 -137t-324 -65q-123 0 -228 40.5t-179.5 111t-127.5 165t-78.5 202t-25.5 222.5z" />
<glyph unicode="D" horiz-adv-x="1290" d="M129 98v1262q0 44 23.5 71t72.5 27h355q127 0 233.5 -38t182 -105t128.5 -158t78 -197t25 -223q0 -218 -73.5 -384t-215.5 -259.5t-334 -93.5h-379q-49 0 -72.5 27t-23.5 71zM309 156h258q99 0 179 32t133 86.5t88.5 130t51 158t15.5 174.5t-16.5 174t-53.5 154.5 t-91.5 124.5t-136 82.5t-181.5 30.5h-246v-1147z" />
<glyph unicode="E" horiz-adv-x="909" d="M119 98v1262q0 44 23.5 71t72.5 27h518q40 0 64 -21.5t24 -62.5t-24 -62.5t-64 -21.5h-434v-477h395q40 0 64 -21.5t24 -62.5t-24 -62.5t-64 -21.5h-395v-477h434q40 0 64 -21.5t24 -62.5t-24 -62.5t-64 -21.5h-518q-49 0 -72.5 27t-23.5 71z" />
<glyph unicode="F" horiz-adv-x="833" d="M119 84v1276q0 44 23.5 71t72.5 27h512q40 0 64 -21.5t24 -62.5t-24 -62.5t-64 -21.5h-428v-477h379q40 0 64 -21.5t24 -62.5t-24 -62.5t-64 -21.5h-379v-561q0 -44 -24.5 -70t-65.5 -26t-65.5 26t-24.5 70z" />
<glyph unicode="G" horiz-adv-x="1366" d="M63 729q0 146 41 276.5t120 235.5t209.5 167t295.5 62q106 0 203.5 -25.5t160 -62t99.5 -76t37 -69.5q0 -36 -24 -61t-62 -25q-24 0 -53 17t-61.5 41t-73 48t-103 41t-135.5 17q-95 0 -173.5 -34.5t-131 -91.5t-88.5 -133.5t-52 -158.5t-16 -168q0 -87 15.5 -168.5 t52 -158t89.5 -133.5t133 -91.5t179 -34.5q101 0 184 40.5t133 105.5t76.5 141t26.5 152v86h-254q-40 0 -64 21.5t-24 62.5t24 62.5t64 21.5h303q71 0 101 -32.5t30 -115.5q0 -79 -8.5 -150t-28.5 -142.5t-51.5 -131t-81 -111.5t-113 -88t-150 -56.5t-190.5 -20.5 q-123 0 -227.5 40.5t-179.5 111t-128 165t-78.5 202t-25.5 222.5z" />
<glyph unicode="H" horiz-adv-x="1366" d="M119 96v1266q0 53 24 80.5t66 27.5t66 -27.5t24 -80.5v-553h768v553q0 53 24 80.5t66 27.5t66 -27.5t24 -80.5v-1266q0 -53 -24 -80.5t-66 -27.5t-66 27.5t-24 80.5v557h-768v-557q0 -53 -24 -80.5t-66 -27.5t-66 27.5t-24 80.5z" />
<glyph unicode="I" d="M119 84v1290q0 44 24.5 70t65.5 26t65.5 -26t24.5 -70v-1290q0 -44 -24.5 -70t-65.5 -26t-65.5 26t-24.5 70z" />
<glyph unicode="J" horiz-adv-x="757" d="M-14 152q0 34 19.5 54.5t51.5 20.5q27 0 51 -13t42 -29t57 -29t92 -13q160 0 160 209v1022q0 44 24.5 70t65.5 26t65.5 -26t24.5 -70v-1003q0 -383 -354 -383q-53 0 -120 18t-123 57.5t-56 88.5z" />
<glyph unicode="K" horiz-adv-x="1175" d="M119 84v1290q0 44 24.5 70t65.5 26t65.5 -26t24.5 -70v-532l625 571q21 20 32.5 29.5t30 18.5t35.5 9q34 0 56 -21t22 -56q0 -32 -9 -48.5t-28 -33.5l-598 -539l653 -631q37 -34 37 -73q0 -33 -26 -56.5t-62 -23.5q-47 0 -88 39l-680 667v-610q0 -44 -24.5 -70t-65.5 -26 t-65.5 26t-24.5 70z" />
<glyph unicode="L" horiz-adv-x="796" d="M119 98v1276q0 44 24.5 70t65.5 26t65.5 -26t24.5 -70v-1206h385q40 0 64 -21.5t24 -62.5t-24 -62.5t-64 -21.5h-469q-49 0 -72.5 27t-23.5 71z" />
<glyph unicode="M" horiz-adv-x="1708" d="M59 80q0 18 11 82l198 1171q24 137 142 137q55 0 85.5 -21.5t45.5 -72.5l311 -1067h4l311 1067q15 51 45.5 72.5t85.5 21.5q118 0 142 -137l198 -1171q11 -64 11 -82q0 -42 -22 -67t-62 -25q-87 0 -97 78l-170 1171h-4l-348 -1176q-22 -73 -92 -73t-92 73l-348 1176h-4 l-170 -1171q-10 -78 -97 -78q-40 0 -62 25t-22 67z" />
<glyph unicode="N" horiz-adv-x="1368" d="M119 84v1280q0 106 82 106q39 0 64 -19t63 -75l737 -1059h4v1057q0 44 24.5 70t65.5 26t65.5 -26t24.5 -70v-1280q0 -106 -82 -106q-39 0 -64 19t-63 75l-737 1059h-4v-1057q0 -44 -24.5 -70t-65.5 -26t-65.5 26t-24.5 70z" />
<glyph unicode="O" horiz-adv-x="1404" d="M63 729q0 115 26 222.5t79.5 202t128.5 165t179.5 111t225.5 40.5t225.5 -40.5t179.5 -111t128.5 -165t79.5 -202t26 -222.5t-26 -222.5t-79.5 -202t-128.5 -165t-179.5 -111t-225.5 -40.5t-225.5 40.5t-179.5 111t-128.5 165t-79.5 202t-26 222.5zM256 729 q0 -87 14.5 -168.5t48.5 -158t84 -133.5t127 -91.5t172 -34.5t172 34.5t127.5 91.5t84.5 133.5t48.5 158t14.5 168.5t-14.5 168.5t-48.5 158t-84.5 133.5t-127.5 91.5t-172 34.5t-172 -34.5t-127 -91.5t-84 -133.5t-48.5 -158t-14.5 -168.5z" />
<glyph unicode="P" horiz-adv-x="1062" d="M119 84v1276q0 44 23.5 71t72.5 27h356q214 0 343.5 -131.5t129.5 -327.5q0 -191 -133.5 -322.5t-332.5 -131.5h-279v-461q0 -44 -24.5 -70t-65.5 -26t-65.5 26t-24.5 70zM299 700h266q131 0 215 86t84 213q0 57 -17 108.5t-51.5 96.5t-96 72t-142.5 27h-258v-603z" />
<glyph unicode="Q" horiz-adv-x="1402" d="M63 729q0 115 26 222.5t79.5 202t128.5 165t179.5 111t225.5 40.5t225.5 -40.5t179.5 -111t128.5 -165t79.5 -202t26 -222.5q0 -263 -127 -461l152 -149q35 -35 35 -72q0 -30 -22 -53t-56 -23q-37 0 -70 33l-143 141q-163 -157 -408 -157q-121 0 -225.5 40.5t-179.5 111 t-128.5 165t-79.5 202t-26 222.5zM256 729q0 -87 14.5 -168.5t48.5 -158t84 -133.5t127 -91.5t172 -34.5q177 0 291 117l-121 119q-36 36 -36 67q0 34 22 58t57 24q36 0 68 -32l100 -99q66 144 66 332q0 87 -14.5 168.5t-48.5 158t-84.5 133.5t-127.5 91.5t-172 34.5 t-172 -34.5t-127 -91.5t-84 -133.5t-48.5 -158t-14.5 -168.5z" />
<glyph unicode="R" horiz-adv-x="1062" d="M119 84v1276q0 44 23.5 71t72.5 27h334q86 0 166.5 -28.5t142.5 -78.5t99.5 -124.5t37.5 -161.5q0 -107 -31 -187.5t-86.5 -128t-125 -71.5t-154.5 -27l-78 -2l465 -510q35 -38 35 -82q0 -29 -24 -49t-58 -20q-46 0 -82 41l-557 610v-555q0 -44 -24.5 -70t-65.5 -26 t-65.5 26t-24.5 70zM299 784h246q141 0 205.5 64t64.5 205q0 105 -75.5 177.5t-198.5 72.5h-242v-519z" />
<glyph unicode="S" horiz-adv-x="985" d="M43 164q0 39 20 65.5t56 26.5q19 0 52 -17.5t67.5 -39t92 -39t120.5 -17.5q136 0 217.5 85.5t81.5 211.5q0 55 -23.5 97.5t-64 70t-92.5 50t-109.5 42t-114.5 40.5t-109 51t-92.5 69t-64 99.5t-23.5 136.5q0 65 30 130.5t83 120t136.5 89t180.5 34.5q138 0 248.5 -51 t110.5 -119q0 -33 -22.5 -56t-55.5 -23q-26 0 -54 14.5t-52 32.5t-72 32.5t-109 14.5q-101 0 -166 -57.5t-65 -149.5q0 -46 19.5 -83t52.5 -61.5t77.5 -46.5t94 -38t102.5 -36.5t102.5 -41.5t94 -53.5t77.5 -72t52.5 -97.5t19.5 -129q0 -123 -56 -226.5t-170 -169 t-267 -65.5q-97 0 -190 22t-154.5 63.5t-61.5 90.5z" />
<glyph unicode="T" horiz-adv-x="909" d="M4 1374q0 41 24 62.5t64 21.5h725q40 0 64 -21.5t24 -62.5t-24 -62.5t-64 -21.5h-272v-1206q0 -44 -24.5 -70t-65.5 -26t-65.5 26t-24.5 70v1206h-273q-40 0 -64 21.5t-24 62.5z" />
<glyph unicode="U" horiz-adv-x="1368" d="M119 578v796q0 44 24.5 70t65.5 26t65.5 -26t24.5 -70v-866q0 -170 105.5 -267.5t279.5 -97.5t279.5 97.5t105.5 267.5v866q0 44 24.5 70t65.5 26t65.5 -26t24.5 -70v-796q0 -102 -18.5 -187t-49.5 -145t-76 -106.5t-93.5 -74.5t-106.5 -46t-111 -24.5t-110 -6.5 t-110 6.5t-111 24.5t-106.5 46t-93.5 74.5t-76 106.5t-49.5 145t-18.5 187z" />
<glyph unicode="V" horiz-adv-x="1138" d="M8 1397q0 29 22.5 51t57.5 22q26 0 43.5 -7.5t31 -28.5t18.5 -33.5t18 -46.5l368 -1063h4l369 1063q13 34 18 46.5t18.5 33.5t31 28.5t43.5 7.5q35 0 57 -22t22 -51q0 -33 -12 -70l-444 -1241q-17 -50 -39.5 -74t-65.5 -24q-42 0 -64.5 24t-39.5 74l-445 1241 q-12 37 -12 70z" />
<glyph unicode="W" horiz-adv-x="1708" d="M51 1389q0 35 22.5 58t59.5 23q84 0 98 -84l191 -1165h4l336 1178q11 39 33.5 55t58.5 16t58.5 -16t33.5 -55l336 -1178h4l191 1165q14 84 98 84q37 0 59.5 -23t22.5 -58q0 -39 -10 -93l-222 -1190q-11 -55 -39 -86.5t-90 -31.5q-57 0 -88.5 23.5t-52.5 94.5l-299 1070 h-4l-299 -1070q-21 -71 -52.5 -94.5t-88.5 -23.5q-62 0 -90 31.5t-39 86.5l-222 1190q-10 54 -10 93z" />
<glyph unicode="X" horiz-adv-x="1216" d="M18 63q0 31 29 74l457 645l-381 539q-29 42 -29 74q0 33 23.5 54t56.5 21q26 0 47 -11.5t45 -45.5l342 -500l342 500q24 34 45 45.5t47 11.5q33 0 56.5 -21t23.5 -54t-28 -74l-381 -539l456 -645q29 -44 29 -74q0 -31 -25 -53t-57 -22q-25 0 -44.5 11t-45.5 46l-418 596 l-418 -596q-26 -35 -45.5 -46t-44.5 -11q-32 0 -57 22t-25 53z" />
<glyph unicode="Y" horiz-adv-x="1024" d="M2 1397q0 33 23.5 53t58.5 20q56 0 90 -57l338 -551l338 551q34 57 90 57q35 0 58.5 -20t23.5 -53q0 -28 -29 -76l-391 -637v-600q0 -44 -24.5 -70t-65.5 -26t-65.5 26t-24.5 70v600l-391 637q-29 48 -29 76z" />
<glyph unicode="Z" horiz-adv-x="1138" d="M49 82q0 44 35 96l750 1125h-662q-40 0 -64 20t-24 57t24.5 57.5t63.5 20.5h797q43 0 68.5 -18.5t25.5 -44.5q0 -30 -9 -53t-36 -62l-752 -1124h735q40 0 64.5 -20.5t24.5 -57.5t-24.5 -57.5t-64.5 -20.5h-845q-107 0 -107 82z" />
<glyph unicode="[" horiz-adv-x="493" d="M156 -70v1442q0 44 23.5 71t72.5 27h141q32 0 55 -22.5t23 -54.5t-23 -55t-55 -23h-69v-1327h69q32 0 55 -23t23 -55t-23 -55t-55 -23h-141q-49 0 -72.5 27t-23.5 71z" />
<glyph unicode="\" horiz-adv-x="833" d="M41 1395q0 35 22 55t58 20q58 0 84 -61l559 -1255q29 -65 29 -91q0 -35 -22 -55t-58 -20q-58 0 -84 61l-559 1256q-29 65 -29 90z" />
<glyph unicode="]" horiz-adv-x="493" d="M23 -90q0 32 22.5 55t54.5 23h70v1327h-70q-32 0 -54.5 23t-22.5 55t22.5 54.5t54.5 22.5h142q49 0 72.5 -27t23.5 -71v-1442q0 -44 -23.5 -71t-72.5 -27h-142q-32 0 -54.5 23t-22.5 55z" />
<glyph unicode="^" horiz-adv-x="1228" d="M115 659q0 8 2 17t6.5 19.5t8 17t10 19t8.5 16.5l358 638q24 42 47 63t59 21t59.5 -21t47.5 -63l358 -638q2 -4 8.5 -16.5t10 -19t8 -17t6.5 -19.5t2 -17q0 -29 -22 -48t-54 -19q-17 0 -29 4.5t-25.5 21.5t-20.5 29t-27 47l-322 596l-321 -596q-24 -43 -34.5 -59.5 t-28 -29.5t-40.5 -13q-32 0 -53.5 19t-21.5 48z" />
<glyph unicode="_" horiz-adv-x="1024" d="M-59 -205q0 24 16.5 37.5t42.5 13.5h1024q26 0 42.5 -13.5t16.5 -37.5t-16.5 -37.5t-42.5 -13.5h-1024q-26 0 -42.5 13.5t-16.5 37.5z" />
<glyph unicode="`" d="M-18 1434q0 29 20.5 57.5t56.5 28.5q23 0 70 -19l236 -96q71 -29 71 -76q0 -28 -21 -57t-57 -29q-21 0 -69 19l-236 96q-71 29 -71 76z" />
<glyph unicode="a" horiz-adv-x="1138" d="M72 545q0 148 54.5 272.5t165.5 204.5t259 80q90 0 160 -36.5t137 -109.5h4v58q0 43 26 65.5t58 22.5q31 0 57.5 -22.5t26.5 -65.5v-938q0 -43 -26.5 -65.5t-57.5 -22.5q-32 0 -58 22.5t-26 65.5v76h-4q-115 -164 -297 -164q-148 0 -259 80t-165.5 204.5t-54.5 272.5z M252 545q0 -58 9.5 -113t32.5 -108t56 -92.5t85 -64t116 -24.5t116 24.5t85 64t56 92.5t32.5 108t9.5 113t-9.5 112.5t-32.5 107.5t-56 93t-85 64t-116 24t-116 -24t-85 -64t-56 -93t-32.5 -107.5t-9.5 -112.5z" />
<glyph unicode="b" horiz-adv-x="1138" d="M127 84v1401q0 44 24.5 70t65.5 26t65.5 -26t24.5 -70v-531h4q41 60 117 104t174 44q107 0 196.5 -46.5t147.5 -124t89.5 -177.5t31.5 -209t-31.5 -209t-89.5 -177.5t-147.5 -124t-196.5 -46.5q-213 0 -291 149h-4v-53q0 -44 -24.5 -70t-65.5 -26t-65.5 26t-24.5 70z M289 545q0 -58 9.5 -113t32.5 -108t56 -92.5t85 -64t116 -24.5t116 24.5t85 64t56 92.5t32.5 108t9.5 113t-9.5 112.5t-32.5 107.5t-56 93t-85 64t-116 24t-116 -24t-85 -64t-56 -93t-32.5 -107.5t-9.5 -112.5z" />
<glyph unicode="c" horiz-adv-x="909" d="M72 545q0 88 19 169t58.5 152t96.5 123.5t138.5 82.5t178.5 30q134 0 213.5 -39.5t79.5 -97.5q0 -29 -21.5 -52.5t-52.5 -23.5q-28 0 -57.5 14.5t-69 28.5t-92.5 14q-80 0 -142 -36t-97.5 -96t-53.5 -128.5t-18 -140.5t18 -141t53.5 -128.5t97.5 -96t142 -36.5 q55 0 97 15.5t70 31t50 15.5q32 0 51 -20t19 -56q0 -55 -77.5 -98t-209.5 -43q-97 0 -178.5 30t-138.5 82.5t-96.5 123.5t-58.5 152t-19 169z" />
<glyph unicode="d" horiz-adv-x="1138" d="M72 545q0 109 31.5 209t89.5 177.5t147.5 124t196.5 46.5q98 0 173.5 -44t116.5 -104h4v531q0 44 25 70t66 26t65.5 -26t24.5 -70v-1401q0 -44 -24.5 -70t-65.5 -26t-66 26t-25 70v53h-4q-78 -149 -290 -149q-107 0 -196.5 46.5t-147.5 124t-89.5 177.5t-31.5 209z M252 545q0 -58 9.5 -113t32.5 -108t56 -92.5t85 -64t116 -24.5t116 24.5t85 64t56 92.5t32.5 108t9.5 113t-9.5 112.5t-32.5 107.5t-56 93t-85 64t-116 24t-116 -24t-85 -64t-56 -93t-32.5 -107.5t-9.5 -112.5z" />
<glyph unicode="e" horiz-adv-x="1064" d="M53 545q0 111 34 211.5t96 177.5t155.5 122.5t204.5 45.5q107 0 197.5 -46t149 -121.5t90.5 -170t32 -193.5q0 -50 -22.5 -73t-78.5 -23h-678q0 -144 87 -238t235 -94q67 0 123 15t91.5 37t63.5 44t50.5 37t40.5 15q26 0 45.5 -21.5t19.5 -58.5q0 -44 -63.5 -96 t-167.5 -89.5t-205 -37.5q-126 0 -224 46t-157 125t-89 177t-30 209zM233 610h598q0 61 -17.5 119t-51.5 107.5t-91 79.5t-128 30h-13q-58 0 -104 -16q-52 -18 -86.5 -50.5t-58.5 -77.5t-35 -92.5t-13 -99.5z" />
<glyph unicode="f" horiz-adv-x="530" d="M12 1012q0 37 23 57.5t67 20.5h74v256q0 113 68 174t172 61h55q38 0 70 -21.5t32 -56.5q0 -78 -98 -78h-45q-40 0 -57 -18t-17 -53v-264h113q44 0 67 -20.5t23 -57.5t-23 -57.5t-67 -20.5h-113v-850q0 -44 -24.5 -70t-65.5 -26t-65.5 26t-24.5 70v850h-74q-44 0 -67 20.5 t-23 57.5z" />
<glyph unicode="g" horiz-adv-x="1138" d="M72 545q0 148 54.5 272.5t165.5 204.5t259 80q83 0 160.5 -41.5t115.5 -95.5h4v49q0 44 28 66t69 22q31 0 57.5 -22.5t26.5 -65.5v-936q0 -241 -134.5 -380.5t-357.5 -139.5q-91 0 -189.5 30t-163.5 76.5t-65 91.5q0 33 18.5 58.5t57.5 25.5q26 0 63.5 -20t72.5 -43.5 t95 -43.5t126 -20q82 0 142 30t92.5 80.5t47 106.5t14.5 119v94h-4q-42 -72 -114 -113.5t-162 -41.5q-148 0 -259 80t-165.5 204.5t-54.5 272.5zM252 545q0 -58 9.5 -113t32.5 -108t56 -92.5t85 -64t116 -24.5t116 24.5t85 64t56 92.5t32.5 108t9.5 113t-9.5 112.5 t-32.5 107.5t-56 93t-85 64t-116 24t-116 -24t-85 -64t-56 -93t-32.5 -107.5t-9.5 -112.5z" />
<glyph unicode="h" horiz-adv-x="1101" d="M119 84v1401q0 44 24.5 70t65.5 26t65.5 -26t24.5 -70v-522l4 -5q113 144 301 144q53 0 104 -13t101.5 -44.5t88.5 -77.5t61.5 -118t23.5 -161v-604q0 -44 -24.5 -70t-65.5 -26t-65.5 26t-24.5 70v594q0 68 -22.5 121.5t-59.5 84.5t-80 46.5t-90 15.5t-90 -15.5 t-80 -46.5t-59.5 -84.5t-22.5 -121.5v-594q0 -44 -24.5 -70t-65.5 -26t-65.5 26t-24.5 70z" />
<glyph unicode="i" d="M98 1360q0 46 32.5 78t78.5 32t78 -32t32 -78t-32 -78.5t-78 -32.5t-78.5 32.5t-32.5 78.5zM119 84v922q0 44 24.5 70t65.5 26t65.5 -26t24.5 -70v-922q0 -44 -24.5 -70t-65.5 -26t-65.5 26t-24.5 70z" />
<glyph unicode="j" d="M98 1360q0 46 32.5 78t78.5 32t78 -32t32 -78t-32 -78.5t-78 -32.5t-78.5 32.5t-32.5 78.5zM119 -346v1352q0 44 24.5 70t65.5 26t65.5 -26t24.5 -70v-1352q0 -44 -24.5 -70t-65.5 -26t-65.5 26t-24.5 70z" />
<glyph unicode="k" horiz-adv-x="948" d="M119 84v1401q0 44 24.5 70t65.5 26t65.5 -26t24.5 -70v-768l393 330q62 55 103 55q34 0 54.5 -22.5t20.5 -57.5q0 -43 -45 -78l-409 -323l475 -469q25 -25 34 -45.5t9 -47.5q0 -30 -23 -50.5t-53 -20.5q-31 0 -51 11t-53 44l-455 475v-434q0 -44 -24.5 -70t-65.5 -26 t-65.5 26t-24.5 70z" />
<glyph unicode="l" d="M119 84v1401q0 44 24.5 70t65.5 26t65.5 -26t24.5 -70v-1401q0 -44 -24.5 -70t-65.5 -26t-65.5 26t-24.5 70z" />
<glyph unicode="m" horiz-adv-x="1708" d="M119 84v922q0 44 24.5 70t65.5 26t65.5 -26t24.5 -70v-33l4 -4q21 27 39.5 45t51.5 41t79.5 35t104.5 12q190 0 299 -184q64 92 142 138t191 46q53 0 104 -13t101.5 -44.5t88.5 -77.5t61.5 -118t23.5 -161v-604q0 -44 -24.5 -70t-65.5 -26t-65.5 26t-24.5 70v610 q0 118 -61.5 185t-171.5 67q-108 0 -170 -67.5t-62 -184.5v-610q0 -44 -24.5 -70t-65.5 -26t-65.5 26t-24.5 70v610q0 117 -62 184.5t-172 67.5q-108 0 -169.5 -67.5t-61.5 -184.5v-610q0 -44 -24.5 -70t-65.5 -26t-65.5 26t-24.5 70z" />
<glyph unicode="n" horiz-adv-x="1101" d="M119 84v922q0 44 24.5 70t65.5 26t65.5 -26t24.5 -70v-43l4 -5q113 144 301 144q53 0 104 -13t101.5 -44.5t88.5 -77.5t61.5 -118t23.5 -161v-604q0 -44 -24.5 -70t-65.5 -26t-65.5 26t-24.5 70v594q0 68 -22.5 121.5t-59.5 84.5t-80 46.5t-90 15.5t-90 -15.5t-80 -46.5 t-59.5 -84.5t-22.5 -121.5v-594q0 -44 -24.5 -70t-65.5 -26t-65.5 26t-24.5 70z" />
<glyph unicode="o" horiz-adv-x="1101" d="M72 545q0 148 54.5 272.5t165.5 204.5t259 80t259 -80t165.5 -204.5t54.5 -272.5t-54.5 -272.5t-165.5 -204.5t-259 -80t-259 80t-165.5 204.5t-54.5 272.5zM252 545q0 -58 9.5 -113t32.5 -108t56 -92.5t85 -64t116 -24.5t116 24.5t85 64t56 92.5t32.5 108t9.5 113 t-9.5 112.5t-32.5 107.5t-56 93t-85 64t-116 24t-116 -24t-85 -64t-56 -93t-32.5 -107.5t-9.5 -112.5z" />
<glyph unicode="p" horiz-adv-x="1138" d="M127 -346v1352q0 44 24.5 70t65.5 26t65.5 -26t24.5 -70v-54h4q78 150 291 150q107 0 196.5 -46.5t147.5 -124t89.5 -177.5t31.5 -209t-31.5 -209t-89.5 -177.5t-147.5 -124t-196.5 -46.5q-98 0 -174 43.5t-117 103.5h-4v-481q0 -44 -24.5 -70t-65.5 -26t-65.5 26 t-24.5 70zM289 545q0 -58 9.5 -113t32.5 -108t56 -92.5t85 -64t116 -24.5t116 24.5t85 64t56 92.5t32.5 108t9.5 113t-9.5 112.5t-32.5 107.5t-56 93t-85 64t-116 24t-116 -24t-85 -64t-56 -93t-32.5 -107.5t-9.5 -112.5z" />
<glyph unicode="q" horiz-adv-x="1138" d="M72 545q0 109 31.5 209t89.5 177.5t147.5 124t196.5 46.5q212 0 290 -150h4v54q0 44 25 70t66 26t65.5 -26t24.5 -70v-1352q0 -44 -24.5 -70t-65.5 -26t-66 26t-25 70v481h-4q-41 -60 -116.5 -103.5t-173.5 -43.5q-107 0 -196.5 46.5t-147.5 124t-89.5 177.5t-31.5 209z M252 545q0 -58 9.5 -113t32.5 -108t56 -92.5t85 -64t116 -24.5t116 24.5t85 64t56 92.5t32.5 108t9.5 113t-9.5 112.5t-32.5 107.5t-56 93t-85 64t-116 24t-116 -24t-85 -64t-56 -93t-32.5 -107.5t-9.5 -112.5z" />
<glyph unicode="r" horiz-adv-x="645" d="M119 84v922q0 44 24.5 70t65.5 26t65.5 -26t24.5 -70v-93h4q35 71 104.5 130t141.5 59q46 0 73 -26t27 -66q0 -78 -112 -99q-43 -7 -82.5 -27t-76 -54.5t-58 -93.5t-21.5 -134v-518q0 -44 -24.5 -70t-65.5 -26t-65.5 26t-24.5 70z" />
<glyph unicode="s" horiz-adv-x="909" d="M49 195q0 36 22 58.5t52 22.5q25 0 59.5 -21t67 -45.5t90.5 -45.5t125 -21q94 0 152.5 44.5t58.5 103.5q0 43 -32 78.5t-83.5 62t-113.5 51.5t-124 54t-113.5 62.5t-83.5 84t-32 111.5q0 73 32 132.5t85.5 97t119 57.5t134.5 20q77 0 159.5 -24t142.5 -70t60 -99 q0 -31 -21.5 -52t-60.5 -21q-21 0 -42 11.5t-41.5 27.5t-45.5 32t-64 27.5t-87 11.5q-81 0 -136 -35.5t-55 -101.5q0 -38 32 -69.5t83.5 -55t113.5 -46.5t124 -51t113.5 -62t83.5 -85.5t32 -115.5q0 -109 -58 -187t-146 -113.5t-193 -35.5q-164 0 -287 67t-123 140z" />
<glyph unicode="t" horiz-adv-x="532" d="M12 1012q0 37 23 57.5t67 20.5h74v235q0 44 24.5 70t65.5 26t65.5 -26t24.5 -70v-235h74q44 0 67 -20.5t23 -57.5t-23 -57.5t-67 -20.5h-74v-850q0 -44 -24.5 -70t-65.5 -26t-65.5 26t-24.5 70v850h-74q-44 0 -67 20.5t-23 57.5z" />
<glyph unicode="u" horiz-adv-x="1101" d="M119 422v584q0 44 24.5 70t65.5 26t65.5 -26t24.5 -70v-578q0 -285 252 -285t252 285v578q0 44 24.5 70t65.5 26t65.5 -26t24.5 -70v-584q0 -115 -36 -201.5t-98.5 -136t-137 -73t-160.5 -23.5t-160.5 23.5t-137 73t-98.5 136t-36 201.5z" />
<glyph unicode="v" horiz-adv-x="872" d="M10 1018q0 38 24 61t58 23q41 0 61.5 -17.5t32.5 -52.5l248 -753h4l248 753q12 35 32.5 52.5t61.5 17.5q34 0 58 -23t24 -61q0 -24 -18 -74l-314 -878q-14 -43 -33.5 -60.5t-60.5 -17.5t-60.5 17.5t-33.5 60.5l-313 878q-19 52 -19 74z" />
<glyph unicode="w" horiz-adv-x="1519" d="M4 1022q0 30 22 55t64 25q34 0 58.5 -19t41.5 -73l232 -744h4l227 717q22 67 41.5 93t65.5 26q45 0 64.5 -25.5t41.5 -93.5l228 -717h4l231 744q17 54 42 73t59 19q42 0 64 -25t22 -55q0 -19 -15 -70l-299 -870q-19 -52 -42 -73t-62 -21q-38 0 -62 21.5t-41 72.5 l-233 735h-4l-234 -735q-17 -52 -40.5 -73t-61.5 -21q-39 0 -62.5 21t-42.5 73l-299 870q-14 47 -14 70z" />
<glyph unicode="x" horiz-adv-x="950" d="M12 70q0 36 37 86l322 422l-283 370q-31 39 -31 72q0 34 22 58t54 24q46 0 78 -41l264 -352l264 352q32 41 78 41q32 0 54 -24t22 -58q0 -33 -31 -72l-282 -370l321 -422q37 -50 37 -86q0 -34 -23.5 -58t-58.5 -24q-53 0 -80 41l-301 417l-301 -417q-27 -41 -80 -41 q-35 0 -58.5 24t-23.5 58z" />
<glyph unicode="y" horiz-adv-x="909" d="M35 1026q0 33 25 54.5t57 21.5q33 0 57 -19t33 -49l250 -747h4l246 747q21 68 86 68q32 0 56.5 -21.5t24.5 -54.5q0 -27 -24 -100l-455 -1301q-24 -67 -88 -67q-32 0 -57 21t-25 54q0 29 27 101l115 305l-308 887q-24 73 -24 100z" />
<glyph unicode="z" horiz-adv-x="909" d="M41 63q0 40 37 93l520 778h-446q-44 0 -67.5 20.5t-23.5 57.5t23.5 57.5t67.5 20.5h606q48 0 68 -19t20 -45q0 -39 -37 -92l-526 -774l6 -4h489q44 0 67 -20.5t23 -57.5t-23 -57.5t-67 -20.5h-649q-48 0 -68 18.5t-20 44.5z" />
<glyph unicode="{" horiz-adv-x="493" d="M-31 651q0 32 20.5 48.5t69.5 29.5q28 7 47 25t29 38t14.5 58.5t5.5 66.5t1 82v250q0 107 52.5 164t156.5 57h77q82 0 82 -61t-82 -61h-28q-40 0 -65 -27t-25 -72v-323q0 -252 -187 -273v-4q187 -21 187 -272v-324q0 -45 25 -71.5t65 -26.5h28q82 0 82 -61q0 -62 -82 -62 h-77q-104 0 -156.5 57t-52.5 164v250q0 54 -1 81.5t-5.5 65.5t-14.5 58t-29 38.5t-47 26.5q-50 15 -70 30.5t-20 47.5z" />
<glyph unicode="|" horiz-adv-x="454" d="M143 76v1417q0 40 21.5 64t62.5 24t62.5 -24t21.5 -64v-1417q0 -40 -21.5 -64t-62.5 -24t-62.5 24t-21.5 64z" />
<glyph unicode="}" horiz-adv-x="493" d="M-31 -106q0 61 82 61h29q40 0 65 26.5t25 71.5v324q0 251 186 272v4q-186 21 -186 273v323q0 45 -25 72t-65 27h-29q-82 0 -82 61t82 61h78q104 0 156.5 -57t52.5 -164v-250q0 -40 0.5 -59.5t2 -51t5 -47.5t10.5 -38t17 -33.5t25.5 -23t35.5 -17.5q50 -15 70 -30.5 t20 -47.5t-20.5 -48.5t-69.5 -29.5q-23 -6 -40 -17.5t-27.5 -33t-16.5 -39.5t-8.5 -53.5t-3 -57.5t-0.5 -69v-250q0 -107 -52.5 -164t-156.5 -57h-78q-82 0 -82 62z" />
<glyph unicode="~" horiz-adv-x="1228" d="M131 430q0 87 85 161.5t181 74.5q44 0 90.5 -11.5t76 -24t75.5 -34.5q5 -3 20.5 -10.5t21 -10.5t19.5 -9.5t20.5 -9.5t18.5 -8t19 -7.5t17.5 -6t18 -5t15.5 -2.5t16 -1q24 0 44.5 14.5t36 35.5t31.5 41.5t38.5 35t50.5 13.5q30 -1 51 -19.5t21 -40.5q0 -87 -85.5 -161 t-181.5 -74q-63 0 -117.5 18t-123.5 51q-5 2 -14 7q-125 63 -173 63q-24 0 -44.5 -14.5t-35.5 -35t-31 -41t-38.5 -35t-50.5 -13.5q-30 1 -51 19t-21 40z" />
<glyph unicode="&#xa1;" horiz-adv-x="606" d="M199 997q0 43 30.5 74t73.5 31t74 -31t31 -74t-31 -73.5t-74 -30.5t-73.5 30.5t-30.5 73.5zM213 -285v887q0 44 24.5 70t65.5 26t65.5 -26t24.5 -70v-887q0 -44 -24.5 -70t-65.5 -26t-65.5 26t-24.5 70z" />
<glyph unicode="&#xa2;" horiz-adv-x="909" d="M72 545q0 133 41.5 246.5t132.5 196.5t219 106v118q0 19 11.5 31t31.5 12t31.5 -12t11.5 -31v-110q142 0 223.5 -39.5t81.5 -97.5q0 -29 -21.5 -52.5t-52.5 -23.5q-27 0 -57.5 14.5t-73 28.5t-100.5 14v-803q47 0 86 9.5t59.5 21.5t43 21.5t40.5 9.5q32 0 51 -20t19 -56 q0 -56 -79.5 -98.5t-219.5 -42.5v-111q0 -19 -11.5 -31t-31.5 -12t-31.5 12t-11.5 31v121q-128 23 -219 105.5t-132.5 195.5t-41.5 246zM252 545q0 -128 53.5 -237t159.5 -146v768q-106 -39 -159.5 -148t-53.5 -237z" />
<glyph unicode="&#xa3;" horiz-adv-x="1214" d="M61 731q0 41 24.5 62.5t64.5 21.5h157q-31 56 -49 93t-34.5 93t-16.5 107q0 104 62.5 188t163 129t216.5 45q88 0 175.5 -34t151 -86t103 -117t39.5 -125q0 -41 -23.5 -64.5t-62.5 -23.5q-27 0 -47 15.5t-33.5 40.5t-27.5 55.5t-34.5 60.5t-49 55t-77 40.5t-112.5 15.5 q-107 0 -185.5 -55.5t-78.5 -151.5q0 -38 12 -79.5t23.5 -65.5t38.5 -72.5t35 -63.5h264q40 0 64 -21.5t24 -62.5t-24 -62.5t-64 -21.5h-223q14 -82 14 -135q0 -77 -47.5 -174.5t-128.5 -169.5h690q40 0 64 -21.5t24 -62.5t-24 -62.5t-64 -21.5h-819q-50 0 -79.5 18.5 t-29.5 67.5q0 23 24 53.5t58.5 65.5t69 77t58.5 103t24 129q0 77 -15 133h-206q-40 0 -64.5 21.5t-24.5 62.5z" />
<glyph unicode="&#xa4;" horiz-adv-x="1097" d="M41 729q0 193 100 305l-69 72q-29 29 -29 57q0 30 23.5 52t46.5 22q20 0 43 -23l86 -88q117 111 307 111t307 -111l86 88q23 23 43 23q23 0 46.5 -22t23.5 -52q0 -28 -29 -57l-70 -72q101 -113 101 -305t-101 -305l70 -72q29 -29 29 -57q0 -30 -23.5 -52t-46.5 -22 q-20 0 -43 23l-86 88q-117 -111 -307 -111t-307 111l-86 -88q-23 -23 -43 -23q-23 0 -46.5 22t-23.5 52q0 28 29 57l69 72q-100 112 -100 305zM209 729q0 -153 100 -252.5t240 -99.5t240 99.5t100 252.5t-100 252.5t-240 99.5t-240 -99.5t-100 -252.5z" />
<glyph unicode="&#xa5;" horiz-adv-x="1097" d="M16 1403q0 28 23 47.5t49 19.5q56 0 94 -57l367 -551l366 551q38 57 95 57q26 0 48.5 -19.5t22.5 -47.5q0 -35 -30 -82l-328 -506h197q37 0 60.5 -17.5t23.5 -49.5q0 -33 -23.5 -50.5t-60.5 -17.5h-281v-145h281q37 0 60.5 -17.5t23.5 -50.5t-23.5 -50.5t-60.5 -17.5 h-281v-315q0 -44 -25 -70t-65 -26t-65 26t-25 70v315h-281q-37 0 -60.5 17.5t-23.5 50.5t23.5 50.5t60.5 17.5h281v145h-281q-37 0 -60.5 17.5t-23.5 50.5q0 32 23.5 49.5t60.5 17.5h197l-328 506q-31 48 -31 82z" />
<glyph unicode="&#xa6;" horiz-adv-x="454" d="M143 76v418q0 40 21.5 64t62.5 24t62.5 -24t21.5 -64v-418q0 -40 -21.5 -64t-62.5 -24t-62.5 24t-21.5 64zM143 1075v418q0 40 21.5 64t62.5 24t62.5 -24t21.5 -64v-418q0 -40 -21.5 -64t-62.5 -24t-62.5 24t-21.5 64z" />
<glyph unicode="&#xa7;" horiz-adv-x="1138" d="M57 553q0 66 18 120.5t53.5 96t78 72.5t100.5 61q-73 54 -103 105t-30 127q0 157 119 246t313 89q89 0 169 -28.5t134 -73t85.5 -99.5t31.5 -108q0 -38 -21.5 -66t-60.5 -28q-31 0 -52.5 18.5t-33.5 46t-31.5 59.5t-43.5 59.5t-73 46t-116 18.5q-103 0 -171.5 -46 t-68.5 -126q0 -47 31 -87t82.5 -68t116.5 -59t133.5 -58.5t133.5 -67t116.5 -84t82.5 -111t31 -145.5q0 -101 -62.5 -196t-160.5 -150q133 -90 133 -242q0 -97 -65.5 -171.5t-162.5 -110.5t-202 -35q-109 1 -201.5 34t-147 80t-84.5 95t-30 86q0 102 90 102q27 0 47 -13.5 t34 -34.5t28 -47t34 -52t47 -47t73 -34.5t106 -13.5q119 0 186.5 47t67.5 117q0 42 -26 77.5t-69.5 63.5t-100 53.5t-119 51.5t-125 54.5t-119 65t-100 79.5t-69.5 102t-26 129zM238 567q0 -75 61 -132t193 -122l233 -114q103 78 139.5 136t36.5 122q0 37 -5.5 63 t-23.5 56.5t-56 58t-97 55.5l-256 119q-107 -45 -166 -100t-59 -142z" />
<glyph unicode="&#xa8;" d="M-92 1348q0 46 32 78t78 32t78.5 -32t32.5 -78t-32.5 -78.5t-78.5 -32.5t-78 32.5t-32 78.5zM289 1348q0 46 32 78t78 32t78.5 -32t32.5 -78t-32.5 -78.5t-78.5 -32.5t-78 32.5t-32 78.5z" />
<glyph unicode="&#xa9;" horiz-adv-x="1638" d="M78 729q0 151 58.5 288.5t157.5 236.5t236.5 157.5t288.5 58.5q202 0 372.5 -99t270 -269.5t99.5 -372.5t-99.5 -372.5t-270 -269.5t-372.5 -99q-151 0 -288.5 58.5t-236.5 157.5t-157.5 236.5t-58.5 288.5zM246 729q0 -119 46 -228t123.5 -187t183 -124.5t220.5 -46.5 t220.5 46.5t183 124.5t124 187t46.5 228t-46.5 228t-124 187t-183 124.5t-220.5 46.5t-220.5 -46.5t-183 -124.5t-123.5 -187t-46 -228zM389 733q0 197 118.5 325t315.5 128q73 0 136 -20t104 -50t71 -66.5t43 -68t13 -55.5q0 -26 -18.5 -42t-49.5 -16q-30 0 -52 19 t-39 45.5t-39 53.5t-65 46t-104 19q-127 0 -196.5 -88.5t-69.5 -229.5q0 -131 73.5 -224t192.5 -93q61 0 105.5 19.5t68.5 47t42.5 55t39 47t45.5 19.5t45.5 -13.5t20.5 -43.5q0 -22 -14 -54t-44.5 -69t-72 -69t-104 -53t-132.5 -21q-192 0 -313 129.5t-121 322.5z" />
<glyph unicode="&#xaa;" horiz-adv-x="739" d="M59 1137q0 143 86 238t226 95q107 0 170 -86h4v33q0 26 19 39.5t48 13.5t48.5 -13.5t19.5 -39.5v-563q0 -26 -19.5 -39.5t-48.5 -13.5t-48 13.5t-19 39.5v33h-4q-63 -86 -170 -86q-140 0 -226 96t-86 240zM207 1137q0 -88 47 -150.5t123 -62.5t123 62.5t47 150.5 q0 87 -47 149t-123 62t-123 -62t-47 -149z" />
<glyph unicode="&#xab;" horiz-adv-x="833" d="M78 549l203 364q29 54 69 54q32 0 57 -19t25 -53q0 -25 -22 -64l-170 -282l170 -283q22 -39 22 -63q0 -34 -25 -53t-57 -19q-40 0 -69 53zM401 549l203 364q29 54 70 54q32 0 57 -19t25 -53q0 -23 -23 -64l-170 -282l170 -283q23 -41 23 -63q0 -34 -25 -53t-57 -19 q-41 0 -70 53z" />
<glyph unicode="&#xac;" horiz-adv-x="1228" d="M96 731q0 41 24 62.5t64 21.5h865q41 0 62.5 -24t21.5 -64v-418q0 -40 -21.5 -64t-62.5 -24t-62.5 24t-21.5 64v338h-781q-40 0 -64 21.5t-24 62.5z" />
<glyph unicode="&#xad;" horiz-adv-x="720" d="M72 549q0 32 23 55t55 23h421q32 0 55 -23t23 -55t-23 -55t-55 -23h-421q-32 0 -55 23t-23 55z" />
<glyph unicode="&#xae;" horiz-adv-x="1638" d="M78 729q0 151 58.5 288.5t157.5 236.5t236.5 157.5t288.5 58.5q202 0 372.5 -99t270 -269.5t99.5 -372.5t-99.5 -372.5t-270 -269.5t-372.5 -99q-151 0 -288.5 58.5t-236.5 157.5t-157.5 236.5t-58.5 288.5zM246 729q0 -119 46 -228t123.5 -187t183 -124.5t220.5 -46.5 t220.5 46.5t183 124.5t124 187t46.5 228t-46.5 228t-124 187t-183 124.5t-220.5 46.5t-220.5 -46.5t-183 -124.5t-123.5 -187t-46 -228zM514 365v735q0 23 11 33t36 10h270q160 0 235 -55t75 -189q0 -210 -211 -235l182 -279q21 -32 21 -51q0 -16 -23.5 -25.5t-52.5 -9.5 q-31 0 -49 10t-33 35l-195 313h-131v-292q0 -66 -67 -66q-68 0 -68 66zM649 780h156q47 0 76.5 3.5t61.5 15.5t47.5 39.5t15.5 70.5q0 36 -16 60t-46.5 34t-58.5 13.5t-68 3.5h-168v-240z" />
<glyph unicode="&#xaf;" d="M-86 1327q0 41 24 62.5t64 21.5h414q40 0 64 -21.5t24 -62.5t-24 -62.5t-64 -21.5h-414q-40 0 -64 21.5t-24 62.5z" />
<glyph unicode="&#xb0;" horiz-adv-x="819" d="M117 1178q0 121 85.5 206.5t207.5 85.5t207 -85t85 -207t-85.5 -207.5t-206.5 -85.5q-122 0 -207.5 85.5t-85.5 207.5zM227 1178q0 -75 54 -129t129 -54t128.5 54t53.5 129t-53.5 128.5t-128.5 53.5t-129 -53.5t-54 -128.5z" />
<glyph unicode="&#xb1;" horiz-adv-x="1228" d="M96 84q0 41 24 62.5t64 21.5h860q40 0 64.5 -21.5t24.5 -62.5t-24.5 -62.5t-64.5 -21.5h-860q-40 0 -64 21.5t-24 62.5zM96 639q0 41 24 62.5t64 21.5h346v225q0 40 21.5 64t62.5 24t62.5 -24t21.5 -64v-225h346q40 0 64.5 -21.5t24.5 -62.5t-24.5 -62.5t-64.5 -21.5 h-346v-225q0 -40 -21.5 -64t-62.5 -24t-62.5 24t-21.5 64v225h-346q-40 0 -64 21.5t-24 62.5z" />
<glyph unicode="&#xb2;" horiz-adv-x="712" d="M63 639q0 15 25 47l350 444q54 68 54 115q0 46 -36 74.5t-96 28.5q-73 0 -122.5 -54t-49.5 -114q0 -25 -17.5 -37.5t-41.5 -12.5q-63 0 -63 68q0 112 81 192t222 80q130 0 200 -63.5t70 -157.5q0 -49 -17.5 -87t-56.5 -85l-297 -358h303q36 0 57 -16t21 -46 q0 -61 -78 -61h-446q-32 0 -47 14t-15 29z" />
<glyph unicode="&#xb3;" horiz-adv-x="712" d="M61 799q0 27 14 46t44 19q19 0 32 -10t27 -41q26 -57 64.5 -81.5t101.5 -24.5q65 0 112.5 45t47.5 110q0 129 -137 129q-58 0 -76.5 13t-18.5 38q0 26 14 39t48 21q65 15 93 47t28 90q0 44 -34.5 76.5t-90.5 32.5q-60 0 -93 -30.5t-40 -70.5q-4 -28 -19 -37.5t-41 -9.5 q-23 0 -37 15.5t-14 41.5q0 92 66.5 152.5t183.5 60.5q124 0 195 -64.5t71 -160.5q0 -56 -29 -106t-84 -80q77 -23 119.5 -79.5t42.5 -131.5q0 -120 -90.5 -192t-226.5 -72q-125 0 -199 68t-74 147z" />
<glyph unicode="&#xb4;" d="M-18 1329q0 47 71 76l236 96q47 19 69 19q36 0 57 -29t21 -57q0 -47 -71 -76l-236 -96q-48 -19 -70 -19q-36 0 -56.5 28.5t-20.5 57.5z" />
<glyph unicode="&#xb5;" horiz-adv-x="1101" d="M119 -346v1352q0 44 24.5 70t65.5 26t65.5 -26t24.5 -70v-578q0 -154 57 -219.5t195 -65.5t195 65.5t57 219.5v578q0 44 24.5 70t65.5 26t65.5 -26t24.5 -70v-922q0 -44 -24.5 -70t-65.5 -26q-68 0 -84 59q-99 -59 -258 -59q-166 0 -252 94v-428q0 -44 -24.5 -70 t-65.5 -26t-65.5 26t-24.5 70z" />
<glyph unicode="&#xb6;" horiz-adv-x="1228" d="M57 1083q0 170 135 272.5t388 102.5h391q49 0 72.5 -27t23.5 -71v-1714q0 -40 -21.5 -64t-62.5 -24t-62.5 24t-21.5 64v1677h-235v-1677q0 -40 -21.5 -64t-62.5 -24t-62.5 24t-21.5 64v1059q-197 0 -318 105.5t-121 272.5z" />
<glyph unicode="&#xb7;" horiz-adv-x="512" d="M145 621q0 46 32.5 78t78.5 32t78.5 -32t32.5 -78t-32.5 -78.5t-78.5 -32.5t-78.5 32.5t-32.5 78.5z" />
<glyph unicode="&#xb8;" d="M123 -297q0 22 11.5 38.5t31.5 16.5q12 0 49 -8t57 -8q38 0 55 12.5t17 42.5q0 14 -5 21.5t-19 11t-26 4t-40 0.5q-23 0 -38 8t-19 16t-4 15q0 21 20 51l53 76h109l-60 -86q30 6 43 6q63 0 102.5 -36.5t39.5 -76.5q0 -90 -62 -133t-166 -43q-65 0 -107 20t-42 52z" />
<glyph unicode="&#xb9;" horiz-adv-x="468" d="M16 1397q0 61 58 61h213q39 0 39 -28v-773q0 -36 -20.5 -54.5t-53.5 -18.5q-32 0 -53 18.5t-21 54.5v678h-104q-27 0 -42.5 16t-15.5 46z" />
<glyph unicode="&#xba;" horiz-adv-x="716" d="M47 1137q0 143 85.5 238t225.5 95t226 -95t86 -238q0 -145 -86 -240.5t-226 -95.5t-225.5 96t-85.5 240zM195 1137q0 -87 45.5 -150t117.5 -63t118 63t46 150q0 86 -46 148.5t-118 62.5q-71 0 -117 -62.5t-46 -148.5z" />
<glyph unicode="&#xbb;" horiz-adv-x="833" d="M78 203q0 24 22 63l170 283l-170 282q-22 39 -22 64q0 34 25 53t57 19q40 0 69 -54l203 -364l-203 -365q-29 -53 -69 -53q-32 0 -57 19t-25 53zM401 203q0 22 23 63l170 283l-170 282q-23 41 -23 64q0 34 25 53t57 19q41 0 70 -54l203 -364l-203 -365q-29 -53 -70 -53 q-32 0 -57 19t-25 53z" />
<glyph unicode="&#xbc;" horiz-adv-x="1648" d="M74 1397q0 61 57 61h213q39 0 39 -28v-773q0 -36 -20.5 -54.5t-53.5 -18.5q-32 0 -52.5 18.5t-20.5 54.5v678h-105q-57 0 -57 62zM385 27q0 23 29 92l544 1306q26 62 72 62q34 0 53 -17t19 -38q0 -27 -29 -93l-545 -1306q-14 -33 -31 -47.5t-44 -14.5q-32 0 -50 17 t-18 39zM911 248q0 23 29 71l326 490q42 65 102 65q47 0 74.5 -22.5t27.5 -67.5v-462h50q24 0 39.5 -17.5t15.5 -44.5t-15.5 -44t-39.5 -17h-50v-148q0 -30 -19.5 -46.5t-53.5 -16.5t-54 16.5t-20 46.5v148h-365q-23 0 -35 14t-12 35zM1081 322h242v405h-4z" />
<glyph unicode="&#xbd;" horiz-adv-x="1648" d="M74 1397q0 61 57 61h213q39 0 39 -28v-773q0 -36 -20.5 -54.5t-53.5 -18.5q-32 0 -52.5 18.5t-20.5 54.5v678h-105q-57 0 -57 62zM324 27q0 25 28 92l545 1306q26 62 72 62q34 0 52.5 -17t18.5 -38q0 -29 -28 -93l-545 -1306q-14 -33 -31.5 -47.5t-44.5 -14.5 q-32 0 -49.5 17t-17.5 39zM928 43q0 16 24 47l351 445q53 67 53 114q0 46 -35.5 74.5t-95.5 28.5q-73 0 -122.5 -54t-49.5 -114q0 -25 -18 -37t-42 -12q-63 0 -63 67q0 112 81 192t222 80q130 0 200 -63.5t70 -157.5q0 -49 -17 -87t-56 -85l-297 -358h303q36 0 56.5 -16 t20.5 -46q0 -61 -77 -61h-447q-32 0 -46.5 14t-14.5 29z" />
<glyph unicode="&#xbe;" horiz-adv-x="1648" d="M86 799q0 27 13.5 46t43.5 19q19 0 32.5 -10t27.5 -41q26 -57 64.5 -81.5t101.5 -24.5q65 0 112 45t47 110q0 129 -137 129q-58 0 -76 13t-18 38q0 26 13.5 39t47.5 21q65 15 93 47t28 90q0 44 -34.5 76.5t-90.5 32.5q-60 0 -93 -30.5t-40 -70.5q-4 -28 -19 -37.5 t-40 -9.5q-23 0 -37 15.5t-14 41.5q0 92 66 152.5t183 60.5q125 0 196 -64.5t71 -160.5q0 -56 -29 -106t-84 -80q77 -23 119.5 -79.5t42.5 -131.5q0 -120 -91 -192t-227 -72q-125 0 -198.5 67.5t-73.5 147.5zM508 27q0 23 29 92l544 1306q26 62 72 62q34 0 53 -17t19 -38 q0 -27 -29 -93l-545 -1306q-14 -33 -31.5 -47.5t-44.5 -14.5q-32 0 -49.5 17t-17.5 39zM911 248q0 23 29 71l326 490q42 65 102 65q47 0 74.5 -22.5t27.5 -67.5v-462h50q24 0 39.5 -17.5t15.5 -44.5t-15.5 -44t-39.5 -17h-50v-148q0 -30 -19.5 -46.5t-53.5 -16.5t-54 16.5 t-20 46.5v148h-365q-23 0 -35 14t-12 35zM1081 322h242v405h-4z" />
<glyph unicode="&#xbf;" horiz-adv-x="909" d="M37 -4q0 161 92.5 264.5t251.5 136.5v205q0 44 24.5 70t65.5 26t65.5 -26t24.5 -70v-231q0 -33 -1.5 -47.5t-8 -31.5t-23 -25t-41.5 -16.5t-69 -17.5q-189 -39 -189 -221q0 -103 66.5 -164t171.5 -61q88 0 147 38t91 130q13 38 31.5 53t47.5 15q37 0 63 -27t25 -68 q-6 -130 -128 -219.5t-271 -89.5q-187 0 -311.5 107.5t-124.5 269.5zM367 997q0 43 30.5 74t73.5 31t73.5 -31t30.5 -74t-30.5 -73.5t-73.5 -30.5t-73.5 30.5t-30.5 73.5z" />
<glyph unicode="&#xc0;" horiz-adv-x="1253" d="M20 63q0 16 25 91l453 1206q40 110 129 110t129 -110l452 -1206q25 -75 25 -91q0 -34 -24.5 -54.5t-61.5 -20.5q-64 0 -88 67l-94 262h-676l-94 -262q-24 -67 -89 -67q-37 0 -61.5 20.5t-24.5 54.5zM344 473h565l-280 789h-4zM399 1761q0 28 21 57t57 29q25 0 70 -18 l235 -96q72 -29 72 -76q0 -28 -21 -57t-57 -29q-24 0 -69 18l-236 97q-72 29 -72 75z" />
<glyph unicode="&#xc1;" horiz-adv-x="1253" d="M20 63q0 16 25 91l453 1206q40 110 129 110t129 -110l452 -1206q25 -75 25 -91q0 -34 -24.5 -54.5t-61.5 -20.5q-64 0 -88 67l-94 262h-676l-94 -262q-24 -67 -89 -67q-37 0 -61.5 20.5t-24.5 54.5zM344 473h565l-280 789h-4zM399 1657q0 47 72 76l236 96q45 18 69 18 q36 0 57 -29t21 -57q0 -46 -72 -75l-235 -97q-45 -18 -70 -18q-36 0 -57 29t-21 57z" />
<glyph unicode="&#xc2;" horiz-adv-x="1253" d="M20 63q0 16 25 91l453 1206q40 110 129 110t129 -110l452 -1206q25 -75 25 -91q0 -34 -24.5 -54.5t-61.5 -20.5q-64 0 -88 67l-94 262h-676l-94 -262q-24 -67 -89 -67q-37 0 -61.5 20.5t-24.5 54.5zM315 1649q0 51 47 71l265 113l264 -113q47 -20 47 -71 q0 -33 -20.5 -55.5t-53.5 -22.5q-22 0 -45 10l-192 76l-193 -76q-22 -10 -45 -10q-33 0 -53.5 22.5t-20.5 55.5zM344 473h565l-280 789h-4z" />
<glyph unicode="&#xc3;" horiz-adv-x="1253" d="M20 63q0 16 25 91l453 1206q40 110 129 110t129 -110l452 -1206q25 -75 25 -91q0 -34 -24.5 -54.5t-61.5 -20.5q-64 0 -88 67l-94 262h-676l-94 -262q-24 -67 -89 -67q-37 0 -61.5 20.5t-24.5 54.5zM322 1669q0 50 53.5 89.5t136.5 39.5q49 0 118 -20.5t107 -20.5 q30 0 67.5 20.5t59.5 20.5q24 0 46 -24.5t22 -55.5q0 -50 -54 -89.5t-137 -39.5q-49 0 -118 20.5t-107 20.5q-30 0 -67.5 -20.5t-59.5 -20.5q-24 0 -45.5 24.5t-21.5 55.5zM344 473h565l-280 789h-4z" />
<glyph unicode="&#xc4;" horiz-adv-x="1253" d="M20 63q0 16 25 91l453 1206q40 110 129 110t129 -110l452 -1206q25 -75 25 -91q0 -34 -24.5 -54.5t-61.5 -20.5q-64 0 -88 67l-94 262h-676l-94 -262q-24 -67 -89 -67q-37 0 -61.5 20.5t-24.5 54.5zM326 1675q0 46 32 78.5t78 32.5t78.5 -32.5t32.5 -78.5t-32.5 -78 t-78.5 -32t-78 32t-32 78zM344 473h565l-280 789h-4zM707 1675q0 46 32 78.5t78 32.5t78.5 -32.5t32.5 -78.5t-32.5 -78t-78.5 -32t-78 32t-32 78z" />
<glyph unicode="&#xc5;" horiz-adv-x="1253" d="M20 63q0 16 25 91l453 1206q40 110 129 110t129 -110l452 -1206q25 -75 25 -91q0 -34 -24.5 -54.5t-61.5 -20.5q-64 0 -88 67l-94 262h-676l-94 -262q-24 -67 -89 -67q-37 0 -61.5 20.5t-24.5 54.5zM344 473h565l-280 789h-4zM434 1696q0 79 56.5 135.5t136.5 56.5 q79 0 135.5 -56t56.5 -136t-56.5 -136.5t-135.5 -56.5t-136 56.5t-57 136.5zM532 1696q0 -38 28.5 -66t66.5 -28t66 28t28 66t-28 66t-66 28t-66.5 -28t-28.5 -66z" />
<glyph unicode="&#xc6;" horiz-adv-x="1554" d="M-18 53q0 33 26 84l637 1243q27 52 50 65t75 13h588q40 0 64 -21.5t24 -62.5t-24 -62.5t-64 -21.5h-414v-477h395q40 0 64 -21.5t24 -62.5t-24 -62.5t-64 -21.5h-395v-477h434q40 0 64 -21.5t24 -62.5t-24 -62.5t-64 -21.5h-518q-49 0 -72.5 27t-23.5 71v219h-473 l-139 -272q-16 -33 -36.5 -45t-49.5 -12q-36 0 -60 19t-24 46zM369 473h395v776h-4z" />
<glyph unicode="&#xc7;" horiz-adv-x="1214" d="M63 729q0 115 25.5 222.5t79 202t129.5 165t183 111t233 40.5q91 0 173.5 -22.5t135 -56t83 -69.5t30.5 -65q0 -36 -20.5 -61t-53.5 -25q-22 0 -45.5 15t-48.5 36t-57 42t-83 36t-114 15q-94 0 -171.5 -34.5t-129.5 -91.5t-88 -133.5t-52 -158.5t-16 -168t16.5 -168.5 t52 -158.5t86.5 -133.5t126 -91.5t165 -34q74 0 142 20.5t108 45t79 45t63 20.5q32 0 51.5 -23t19.5 -61q0 -72 -139 -137t-324 -65q-123 0 -228 40.5t-179.5 111t-127.5 165t-78.5 202t-25.5 222.5zM492 -297q0 22 11.5 38.5t31.5 16.5q12 0 49 -8t57 -8q38 0 55 12.5 t17 42.5q0 14 -5 21.5t-19 11t-26 4t-40 0.5q-23 0 -38 8t-19.5 16t-4.5 15q0 20 21 51l53 76h108l-59 -86q30 6 43 6q63 0 102 -36.5t39 -76.5q0 -90 -61.5 -133t-165.5 -43q-65 0 -107 20t-42 52z" />
<glyph unicode="&#xc8;" horiz-adv-x="909" d="M119 98v1262q0 44 23.5 71t72.5 27h518q40 0 64 -21.5t24 -62.5t-24 -62.5t-64 -21.5h-434v-477h395q40 0 64 -21.5t24 -62.5t-24 -62.5t-64 -21.5h-395v-477h434q40 0 64 -21.5t24 -62.5t-24 -62.5t-64 -21.5h-518q-49 0 -72.5 27t-23.5 71zM227 1761q0 28 21 57t57 29 q25 0 70 -18l235 -96q72 -29 72 -76q0 -28 -21 -57t-57 -29q-24 0 -69 18l-236 97q-72 29 -72 75z" />
<glyph unicode="&#xc9;" horiz-adv-x="909" d="M119 98v1262q0 44 23.5 71t72.5 27h518q40 0 64 -21.5t24 -62.5t-24 -62.5t-64 -21.5h-434v-477h395q40 0 64 -21.5t24 -62.5t-24 -62.5t-64 -21.5h-395v-477h434q40 0 64 -21.5t24 -62.5t-24 -62.5t-64 -21.5h-518q-49 0 -72.5 27t-23.5 71zM227 1657q0 47 72 76l236 96 q45 18 69 18q36 0 57 -29t21 -57q0 -46 -72 -75l-235 -97q-45 -18 -70 -18q-36 0 -57 29t-21 57z" />
<glyph unicode="&#xca;" horiz-adv-x="909" d="M119 98v1262q0 44 23.5 71t72.5 27h518q40 0 64 -21.5t24 -62.5t-24 -62.5t-64 -21.5h-434v-477h395q40 0 64 -21.5t24 -62.5t-24 -62.5t-64 -21.5h-395v-477h434q40 0 64 -21.5t24 -62.5t-24 -62.5t-64 -21.5h-518q-49 0 -72.5 27t-23.5 71zM143 1649q0 51 47 71 l265 113l264 -113q47 -20 47 -71q0 -33 -20.5 -55.5t-53.5 -22.5q-22 0 -45 10l-192 76l-193 -76q-23 -10 -45 -10q-33 0 -53.5 22.5t-20.5 55.5z" />
<glyph unicode="&#xcb;" horiz-adv-x="909" d="M119 98v1262q0 44 23.5 71t72.5 27h518q40 0 64 -21.5t24 -62.5t-24 -62.5t-64 -21.5h-434v-477h395q40 0 64 -21.5t24 -62.5t-24 -62.5t-64 -21.5h-395v-477h434q40 0 64 -21.5t24 -62.5t-24 -62.5t-64 -21.5h-518q-49 0 -72.5 27t-23.5 71zM154 1675q0 46 32 78.5 t78 32.5t78.5 -32.5t32.5 -78.5t-32.5 -78t-78.5 -32t-78 32t-32 78zM535 1675q0 46 32 78.5t78 32.5t78.5 -32.5t32.5 -78.5t-32.5 -78t-78.5 -32t-78 32t-32 78z" />
<glyph unicode="&#xcc;" d="M-18 1761q0 29 20.5 57.5t56.5 28.5q25 0 70 -18l236 -96q71 -29 71 -76q0 -28 -21 -57t-57 -29q-24 0 -69 18l-236 97q-71 29 -71 75zM119 84v1290q0 44 24.5 70t65.5 26t65.5 -26t24.5 -70v-1290q0 -44 -24.5 -70t-65.5 -26t-65.5 26t-24.5 70z" />
<glyph unicode="&#xcd;" d="M-18 1657q0 47 71 76l236 96q45 18 69 18q36 0 57 -29t21 -57q0 -46 -71 -75l-236 -97q-45 -18 -70 -18q-36 0 -56.5 28.5t-20.5 57.5zM119 84v1290q0 44 24.5 70t65.5 26t65.5 -26t24.5 -70v-1290q0 -44 -24.5 -70t-65.5 -26t-65.5 26t-24.5 70z" />
<glyph unicode="&#xce;" d="M-102 1649q0 51 47 71l264 113l264 -113q47 -20 47 -71q0 -33 -20.5 -55.5t-53.5 -22.5q-22 0 -45 10l-192 76l-193 -76q-23 -10 -45 -10q-33 0 -53 22.5t-20 55.5zM119 84v1290q0 44 24.5 70t65.5 26t65.5 -26t24.5 -70v-1290q0 -44 -24.5 -70t-65.5 -26t-65.5 26 t-24.5 70z" />
<glyph unicode="&#xcf;" d="M-92 1675q0 46 32 78.5t78 32.5t78.5 -32.5t32.5 -78.5t-32.5 -78t-78.5 -32t-78 32t-32 78zM119 84v1290q0 44 24.5 70t65.5 26t65.5 -26t24.5 -70v-1290q0 -44 -24.5 -70t-65.5 -26t-65.5 26t-24.5 70zM289 1675q0 46 32 78.5t78 32.5t78.5 -32.5t32.5 -78.5t-32.5 -78 t-78.5 -32t-78 32t-32 78z" />
<glyph unicode="&#xd0;" horiz-adv-x="1290" d="M-37 735q0 37 24.5 57.5t63.5 20.5h78v547q0 44 23.5 71t72.5 27h355q127 0 233.5 -38t182 -105t128.5 -158t78 -197t25 -223q0 -218 -73.5 -384t-215.5 -259.5t-334 -93.5h-379q-49 0 -72.5 27t-23.5 71v559h-78q-39 0 -63.5 20.5t-24.5 57.5zM309 156h258q99 0 179 32 t133 86.5t88.5 130t51 158t15.5 174.5t-16.5 174t-53.5 154.5t-91.5 124.5t-136 82.5t-181.5 30.5h-246v-490h246q39 0 63.5 -20.5t24.5 -57.5t-24.5 -57.5t-63.5 -20.5h-246v-501z" />
<glyph unicode="&#xd1;" horiz-adv-x="1368" d="M119 84v1280q0 106 82 106q39 0 64 -19t63 -75l737 -1059h4v1057q0 44 24.5 70t65.5 26t65.5 -26t24.5 -70v-1280q0 -106 -82 -106q-39 0 -64 19t-63 75l-737 1059h-4v-1057q0 -44 -24.5 -70t-65.5 -26t-65.5 26t-24.5 70zM379 1669q0 50 53.5 89.5t136.5 39.5 q49 0 118.5 -20.5t107.5 -20.5q30 0 67.5 20.5t59.5 20.5q24 0 45.5 -24.5t21.5 -55.5q0 -50 -53.5 -89.5t-136.5 -39.5q-49 0 -118.5 20.5t-107.5 20.5q-30 0 -67.5 -20.5t-59.5 -20.5q-24 0 -45.5 24.5t-21.5 55.5z" />
<glyph unicode="&#xd2;" horiz-adv-x="1404" d="M63 729q0 115 26 222.5t79.5 202t128.5 165t179.5 111t225.5 40.5t225.5 -40.5t179.5 -111t128.5 -165t79.5 -202t26 -222.5t-26 -222.5t-79.5 -202t-128.5 -165t-179.5 -111t-225.5 -40.5t-225.5 40.5t-179.5 111t-128.5 165t-79.5 202t-26 222.5zM256 729 q0 -87 14.5 -168.5t48.5 -158t84 -133.5t127 -91.5t172 -34.5t172 34.5t127.5 91.5t84.5 133.5t48.5 158t14.5 168.5t-14.5 168.5t-48.5 158t-84.5 133.5t-127.5 91.5t-172 34.5t-172 -34.5t-127 -91.5t-84 -133.5t-48.5 -158t-14.5 -168.5zM475 1761q0 28 21 57t57 29 q25 0 70 -18l235 -96q72 -29 72 -76q0 -28 -21 -57t-57 -29q-25 0 -70 18l-235 97q-72 29 -72 75z" />
<glyph unicode="&#xd3;" horiz-adv-x="1404" d="M63 729q0 115 26 222.5t79.5 202t128.5 165t179.5 111t225.5 40.5t225.5 -40.5t179.5 -111t128.5 -165t79.5 -202t26 -222.5t-26 -222.5t-79.5 -202t-128.5 -165t-179.5 -111t-225.5 -40.5t-225.5 40.5t-179.5 111t-128.5 165t-79.5 202t-26 222.5zM256 729 q0 -87 14.5 -168.5t48.5 -158t84 -133.5t127 -91.5t172 -34.5t172 34.5t127.5 91.5t84.5 133.5t48.5 158t14.5 168.5t-14.5 168.5t-48.5 158t-84.5 133.5t-127.5 91.5t-172 34.5t-172 -34.5t-127 -91.5t-84 -133.5t-48.5 -158t-14.5 -168.5zM475 1657q0 47 72 76l235 96 q45 18 70 18q36 0 57 -29t21 -57q0 -46 -72 -75l-235 -97q-45 -18 -70 -18q-36 0 -57 29t-21 57z" />
<glyph unicode="&#xd4;" horiz-adv-x="1404" d="M63 729q0 115 26 222.5t79.5 202t128.5 165t179.5 111t225.5 40.5t225.5 -40.5t179.5 -111t128.5 -165t79.5 -202t26 -222.5t-26 -222.5t-79.5 -202t-128.5 -165t-179.5 -111t-225.5 -40.5t-225.5 40.5t-179.5 111t-128.5 165t-79.5 202t-26 222.5zM256 729 q0 -87 14.5 -168.5t48.5 -158t84 -133.5t127 -91.5t172 -34.5t172 34.5t127.5 91.5t84.5 133.5t48.5 158t14.5 168.5t-14.5 168.5t-48.5 158t-84.5 133.5t-127.5 91.5t-172 34.5t-172 -34.5t-127 -91.5t-84 -133.5t-48.5 -158t-14.5 -168.5zM391 1649q0 51 47 71l264 113 l265 -113q47 -20 47 -71q0 -33 -20.5 -55.5t-53.5 -22.5q-22 0 -45 10l-193 76l-192 -76q-22 -10 -45 -10q-33 0 -53.5 22.5t-20.5 55.5z" />
<glyph unicode="&#xd5;" horiz-adv-x="1404" d="M63 729q0 115 26 222.5t79.5 202t128.5 165t179.5 111t225.5 40.5t225.5 -40.5t179.5 -111t128.5 -165t79.5 -202t26 -222.5t-26 -222.5t-79.5 -202t-128.5 -165t-179.5 -111t-225.5 -40.5t-225.5 40.5t-179.5 111t-128.5 165t-79.5 202t-26 222.5zM256 729 q0 -87 14.5 -168.5t48.5 -158t84 -133.5t127 -91.5t172 -34.5t172 34.5t127.5 91.5t84.5 133.5t48.5 158t14.5 168.5t-14.5 168.5t-48.5 158t-84.5 133.5t-127.5 91.5t-172 34.5t-172 -34.5t-127 -91.5t-84 -133.5t-48.5 -158t-14.5 -168.5zM397 1669q0 50 54 89.5t137 39.5 q49 0 118 -20.5t107 -20.5q30 0 67.5 20.5t59.5 20.5q24 0 46 -24.5t22 -55.5q0 -50 -54 -89.5t-137 -39.5q-49 0 -118 20.5t-107 20.5q-30 0 -67.5 -20.5t-59.5 -20.5q-24 0 -46 24.5t-22 55.5z" />
<glyph unicode="&#xd6;" horiz-adv-x="1404" d="M63 729q0 115 26 222.5t79.5 202t128.5 165t179.5 111t225.5 40.5t225.5 -40.5t179.5 -111t128.5 -165t79.5 -202t26 -222.5t-26 -222.5t-79.5 -202t-128.5 -165t-179.5 -111t-225.5 -40.5t-225.5 40.5t-179.5 111t-128.5 165t-79.5 202t-26 222.5zM256 729 q0 -87 14.5 -168.5t48.5 -158t84 -133.5t127 -91.5t172 -34.5t172 34.5t127.5 91.5t84.5 133.5t48.5 158t14.5 168.5t-14.5 168.5t-48.5 158t-84.5 133.5t-127.5 91.5t-172 34.5t-172 -34.5t-127 -91.5t-84 -133.5t-48.5 -158t-14.5 -168.5zM401 1675q0 46 32.5 78.5 t78.5 32.5t78.5 -32.5t32.5 -78.5t-32.5 -78t-78.5 -32t-78.5 32t-32.5 78zM782 1675q0 46 32.5 78.5t78.5 32.5t78.5 -32.5t32.5 -78.5t-32.5 -78t-78.5 -32t-78.5 32t-32.5 78z" />
<glyph unicode="&#xd7;" horiz-adv-x="1228" d="M143 123q0 22 8.5 39t34.5 43l314 313l-314 313q-26 26 -34.5 43t-8.5 39q0 29 21.5 52.5t52.5 23.5q39 0 86 -47l311 -309l312 309q47 47 86 47q31 0 52 -23.5t21 -52.5q0 -22 -8.5 -39t-34.5 -43l-313 -313l313 -313q26 -26 34.5 -43t8.5 -39q0 -29 -21 -52.5 t-52 -23.5q-39 0 -86 47l-312 312l-311 -312q-47 -47 -86 -47q-31 0 -52.5 23.5t-21.5 52.5z" />
<glyph unicode="&#xd8;" horiz-adv-x="1404" d="M41 27q0 27 29 61l135 158q-142 207 -142 483q0 115 26 222.5t79.5 202t128.5 165t179.5 111t225.5 40.5q247 0 414 -161l121 143q28 35 63 35q26 0 45 -15t19 -42q0 -26 -25 -54l-141 -164q70 -99 106.5 -224t36.5 -259q0 -115 -26 -222.5t-79.5 -202t-128.5 -165 t-179.5 -111t-225.5 -40.5q-246 0 -413 164l-125 -148q-29 -33 -64 -33q-27 0 -43 17.5t-16 38.5zM256 729q0 -196 72 -340l680 795q-118 131 -306 131q-95 0 -172 -34.5t-127 -91.5t-84 -133.5t-48.5 -158t-14.5 -168.5zM397 276q114 -133 305 -133q95 0 172 34.5 t127.5 91.5t84.5 133.5t48.5 158t14.5 168.5q0 198 -70 344z" />
<glyph unicode="&#xd9;" horiz-adv-x="1368" d="M119 578v796q0 44 24.5 70t65.5 26t65.5 -26t24.5 -70v-866q0 -170 105.5 -267.5t279.5 -97.5t279.5 97.5t105.5 267.5v866q0 44 24.5 70t65.5 26t65.5 -26t24.5 -70v-796q0 -102 -18.5 -187t-49.5 -145t-76 -106.5t-93.5 -74.5t-106.5 -46t-111 -24.5t-110 -6.5 t-110 6.5t-111 24.5t-106.5 46t-93.5 74.5t-76 106.5t-49.5 145t-18.5 187zM457 1761q0 28 21 57t57 29q24 0 69 -18l236 -96q71 -29 71 -76q0 -29 -20.5 -57.5t-56.5 -28.5q-25 0 -70 18l-236 97q-71 29 -71 75z" />
<glyph unicode="&#xda;" horiz-adv-x="1368" d="M119 578v796q0 44 24.5 70t65.5 26t65.5 -26t24.5 -70v-866q0 -170 105.5 -267.5t279.5 -97.5t279.5 97.5t105.5 267.5v866q0 44 24.5 70t65.5 26t65.5 -26t24.5 -70v-796q0 -102 -18.5 -187t-49.5 -145t-76 -106.5t-93.5 -74.5t-106.5 -46t-111 -24.5t-110 -6.5 t-110 6.5t-111 24.5t-106.5 46t-93.5 74.5t-76 106.5t-49.5 145t-18.5 187zM457 1657q0 47 71 76l236 96q45 18 70 18q36 0 56.5 -28.5t20.5 -57.5q0 -46 -71 -75l-236 -97q-45 -18 -69 -18q-36 0 -57 29t-21 57z" />
<glyph unicode="&#xdb;" horiz-adv-x="1368" d="M119 578v796q0 44 24.5 70t65.5 26t65.5 -26t24.5 -70v-866q0 -170 105.5 -267.5t279.5 -97.5t279.5 97.5t105.5 267.5v866q0 44 24.5 70t65.5 26t65.5 -26t24.5 -70v-796q0 -102 -18.5 -187t-49.5 -145t-76 -106.5t-93.5 -74.5t-106.5 -46t-111 -24.5t-110 -6.5 t-110 6.5t-111 24.5t-106.5 46t-93.5 74.5t-76 106.5t-49.5 145t-18.5 187zM373 1649q0 51 47 71l264 113l264 -113q47 -20 47 -71q0 -33 -20 -55.5t-53 -22.5q-22 0 -45 10l-193 76l-192 -76q-22 -10 -46 -10q-33 0 -53 22.5t-20 55.5z" />
<glyph unicode="&#xdc;" horiz-adv-x="1368" d="M119 578v796q0 44 24.5 70t65.5 26t65.5 -26t24.5 -70v-866q0 -170 105.5 -267.5t279.5 -97.5t279.5 97.5t105.5 267.5v866q0 44 24.5 70t65.5 26t65.5 -26t24.5 -70v-796q0 -102 -18.5 -187t-49.5 -145t-76 -106.5t-93.5 -74.5t-106.5 -46t-111 -24.5t-110 -6.5 t-110 6.5t-111 24.5t-106.5 46t-93.5 74.5t-76 106.5t-49.5 145t-18.5 187zM383 1675q0 46 32.5 78.5t78.5 32.5t78 -32.5t32 -78.5t-32 -78t-78 -32t-78.5 32t-32.5 78zM764 1675q0 46 32 78.5t78 32.5t78.5 -32.5t32.5 -78.5t-32.5 -78t-78.5 -32t-78 32t-32 78z" />
<glyph unicode="&#xdd;" horiz-adv-x="1024" d="M2 1397q0 33 23.5 53t58.5 20q56 0 90 -57l338 -551l338 551q34 57 90 57q35 0 58.5 -20t23.5 -53q0 -28 -29 -76l-391 -637v-600q0 -44 -24.5 -70t-65.5 -26t-65.5 26t-24.5 70v600l-391 637q-29 48 -29 76zM285 1657q0 47 71 76l236 96q45 18 70 18q36 0 56.5 -28.5 t20.5 -57.5q0 -46 -71 -75l-236 -97q-45 -18 -70 -18q-36 0 -56.5 28.5t-20.5 57.5z" />
<glyph unicode="&#xde;" horiz-adv-x="1062" d="M119 84v1290q0 44 24.5 70t65.5 26t65.5 -26t24.5 -70v-145h272q214 0 343.5 -132t129.5 -325q0 -190 -134 -321.5t-332 -131.5h-279v-235q0 -44 -24.5 -70t-65.5 -26t-65.5 26t-24.5 70zM299 475h266q132 0 215.5 85.5t83.5 211.5q0 55 -17 106t-51.5 96t-96 72 t-142.5 27h-258v-598z" />
<glyph unicode="&#xdf;" horiz-adv-x="1138" d="M119 76v1077q0 198 108 313t285 115q90 0 168.5 -33.5t130 -87t80.5 -119.5t29 -133q0 -236 -158 -344q127 -33 200.5 -146.5t73.5 -258.5q0 -83 -27.5 -165.5t-77.5 -151t-128.5 -111.5t-171.5 -43q-119 0 -119 84q0 32 16.5 55t51.5 23q146 0 205 82.5t59 234.5 q0 139 -69.5 216t-178.5 83q-50 3 -71 21.5t-21 54.5q0 41 19 57.5t73 32.5q31 9 51.5 21t44 38t35.5 75.5t12 121.5q0 101 -60.5 169t-162.5 68q-43 0 -79 -14t-68.5 -46.5t-51 -95.5t-18.5 -151v-1042q0 -44 -27 -66t-63 -22t-63 22t-27 66z" />
<glyph unicode="&#xe0;" horiz-adv-x="1138" d="M72 545q0 148 54.5 272.5t165.5 204.5t259 80q90 0 160 -36.5t137 -109.5h4v58q0 43 26 65.5t58 22.5q31 0 57.5 -22.5t26.5 -65.5v-938q0 -43 -26.5 -65.5t-57.5 -22.5q-32 0 -58 22.5t-26 65.5v76h-4q-115 -164 -297 -164q-148 0 -259 80t-165.5 204.5t-54.5 272.5z M252 545q0 -58 9.5 -113t32.5 -108t56 -92.5t85 -64t116 -24.5t116 24.5t85 64t56 92.5t32.5 108t9.5 113t-9.5 112.5t-32.5 107.5t-56 93t-85 64t-116 24t-116 -24t-85 -64t-56 -93t-32.5 -107.5t-9.5 -112.5zM342 1434q0 28 21 57t57 29q22 0 69 -19l236 -96 q72 -29 72 -76q0 -28 -21 -57t-57 -29q-23 0 -70 19l-235 96q-72 29 -72 76z" />
<glyph unicode="&#xe1;" horiz-adv-x="1138" d="M72 545q0 148 54.5 272.5t165.5 204.5t259 80q90 0 160 -36.5t137 -109.5h4v58q0 43 26 65.5t58 22.5q31 0 57.5 -22.5t26.5 -65.5v-938q0 -43 -26.5 -65.5t-57.5 -22.5q-32 0 -58 22.5t-26 65.5v76h-4q-115 -164 -297 -164q-148 0 -259 80t-165.5 204.5t-54.5 272.5z M252 545q0 -58 9.5 -113t32.5 -108t56 -92.5t85 -64t116 -24.5t116 24.5t85 64t56 92.5t32.5 108t9.5 113t-9.5 112.5t-32.5 107.5t-56 93t-85 64t-116 24t-116 -24t-85 -64t-56 -93t-32.5 -107.5t-9.5 -112.5zM342 1329q0 47 72 76l235 96q47 19 70 19q36 0 57 -29t21 -57 q0 -47 -72 -76l-236 -96q-48 -19 -69 -19q-36 0 -57 29t-21 57z" />
<glyph unicode="&#xe2;" horiz-adv-x="1138" d="M72 545q0 148 54.5 272.5t165.5 204.5t259 80q90 0 160 -36.5t137 -109.5h4v58q0 43 26 65.5t58 22.5q31 0 57.5 -22.5t26.5 -65.5v-938q0 -43 -26.5 -65.5t-57.5 -22.5q-32 0 -58 22.5t-26 65.5v76h-4q-115 -164 -297 -164q-148 0 -259 80t-165.5 204.5t-54.5 272.5z M252 545q0 -58 9.5 -113t32.5 -108t56 -92.5t85 -64t116 -24.5t116 24.5t85 64t56 92.5t32.5 108t9.5 113t-9.5 112.5t-32.5 107.5t-56 93t-85 64t-116 24t-116 -24t-85 -64t-56 -93t-32.5 -107.5t-9.5 -112.5zM258 1321q0 52 47 72l264 112l265 -112q47 -20 47 -72 q0 -33 -20.5 -55.5t-53.5 -22.5q-23 0 -45 10l-193 76l-192 -76q-22 -10 -45 -10q-33 0 -53.5 22.5t-20.5 55.5z" />
<glyph unicode="&#xe3;" horiz-adv-x="1138" d="M72 545q0 148 54.5 272.5t165.5 204.5t259 80q90 0 160 -36.5t137 -109.5h4v58q0 43 26 65.5t58 22.5q31 0 57.5 -22.5t26.5 -65.5v-938q0 -43 -26.5 -65.5t-57.5 -22.5q-32 0 -58 22.5t-26 65.5v76h-4q-115 -164 -297 -164q-148 0 -259 80t-165.5 204.5t-54.5 272.5z M252 545q0 -58 9.5 -113t32.5 -108t56 -92.5t85 -64t116 -24.5t116 24.5t85 64t56 92.5t32.5 108t9.5 113t-9.5 112.5t-32.5 107.5t-56 93t-85 64t-116 24t-116 -24t-85 -64t-56 -93t-32.5 -107.5t-9.5 -112.5zM264 1341q0 50 54 89.5t137 39.5q49 0 118 -20t107 -20 q30 0 67.5 20t59.5 20q24 0 45.5 -24t21.5 -55q0 -50 -53.5 -89.5t-136.5 -39.5q-49 0 -118 20.5t-107 20.5q-30 0 -67.5 -20.5t-59.5 -20.5q-24 0 -46 24t-22 55z" />
<glyph unicode="&#xe4;" horiz-adv-x="1138" d="M72 545q0 148 54.5 272.5t165.5 204.5t259 80q90 0 160 -36.5t137 -109.5h4v58q0 43 26 65.5t58 22.5q31 0 57.5 -22.5t26.5 -65.5v-938q0 -43 -26.5 -65.5t-57.5 -22.5q-32 0 -58 22.5t-26 65.5v76h-4q-115 -164 -297 -164q-148 0 -259 80t-165.5 204.5t-54.5 272.5z M252 545q0 -58 9.5 -113t32.5 -108t56 -92.5t85 -64t116 -24.5t116 24.5t85 64t56 92.5t32.5 108t9.5 113t-9.5 112.5t-32.5 107.5t-56 93t-85 64t-116 24t-116 -24t-85 -64t-56 -93t-32.5 -107.5t-9.5 -112.5zM268 1348q0 46 32.5 78t78.5 32t78 -32t32 -78t-32 -78.5 t-78 -32.5t-78.5 32.5t-32.5 78.5zM649 1348q0 46 32.5 78t78.5 32t78 -32t32 -78t-32 -78.5t-78 -32.5t-78.5 32.5t-32.5 78.5z" />
<glyph unicode="&#xe5;" horiz-adv-x="1138" d="M72 545q0 148 54.5 272.5t165.5 204.5t259 80q90 0 160 -36.5t137 -109.5h4v58q0 43 26 65.5t58 22.5q31 0 57.5 -22.5t26.5 -65.5v-938q0 -43 -26.5 -65.5t-57.5 -22.5q-32 0 -58 22.5t-26 65.5v76h-4q-115 -164 -297 -164q-148 0 -259 80t-165.5 204.5t-54.5 272.5z M252 545q0 -58 9.5 -113t32.5 -108t56 -92.5t85 -64t116 -24.5t116 24.5t85 64t56 92.5t32.5 108t9.5 113t-9.5 112.5t-32.5 107.5t-56 93t-85 64t-116 24t-116 -24t-85 -64t-56 -93t-32.5 -107.5t-9.5 -112.5zM377 1389q0 79 56.5 135.5t135.5 56.5q80 0 136.5 -56.5 t56.5 -135.5t-57 -136t-136 -57t-135.5 56.5t-56.5 136.5zM475 1389q0 -38 28 -66.5t66 -28.5t66.5 28.5t28.5 66.5t-28.5 66t-66.5 28t-66 -28t-28 -66z" />
<glyph unicode="&#xe6;" horiz-adv-x="1820" d="M72 545q0 148 54.5 272.5t165.5 204.5t259 80q90 0 160 -36.5t135 -109.5h4v58q0 43 26 65.5t58 22.5q31 0 57.5 -22.5t26.5 -65.5v-45h4q25 36 108 84.5t179 48.5q87 0 169.5 -38.5t146.5 -106t103 -168.5t39 -218q0 -50 -22 -73t-78 -23h-666q3 -85 40 -158.5 t113 -122.5t177 -47q75 1 136.5 23.5t93 48.5t63.5 48.5t55 23.5q26 0 46 -22t20 -58q2 -44 -57.5 -96t-156 -89.5t-188.5 -37.5q-102 0 -186 33t-135 98h-4v-43q0 -43 -26.5 -65.5t-57.5 -22.5q-32 0 -58 22.5t-26 65.5v76h-4q-112 -164 -295 -164q-148 0 -259 80 t-165.5 204.5t-54.5 272.5zM252 545q0 -58 9.5 -113t32.5 -108t56 -92.5t85 -64t116 -24.5t116 24.5t85 64t56 92.5t32.5 108t9.5 113t-9.5 112.5t-32.5 107.5t-56 93t-85 64t-116 24t-116 -24t-85 -64t-56 -93t-32.5 -107.5t-9.5 -112.5zM1014 610h573q0 48 -10.5 95 t-34 90.5t-56.5 77t-81.5 53.5t-106.5 20q-74 0 -131 -30t-89 -80t-48 -107t-16 -119z" />
<glyph unicode="&#xe7;" horiz-adv-x="909" d="M72 545q0 88 19 169t58.5 152t96.5 123.5t138.5 82.5t178.5 30q134 0 213.5 -39.5t79.5 -97.5q0 -29 -21.5 -52.5t-52.5 -23.5q-28 0 -57.5 14.5t-69 28.5t-92.5 14q-80 0 -142 -36t-97.5 -96t-53.5 -128.5t-18 -140.5t18 -141t53.5 -128.5t97.5 -96t142 -36.5 q55 0 97 15.5t70 31t50 15.5q32 0 51 -20t19 -56q0 -55 -77.5 -98t-209.5 -43q-97 0 -178.5 30t-138.5 82.5t-96.5 123.5t-58.5 152t-19 169zM338 -297q0 22 11.5 38.5t31.5 16.5q12 0 49 -8t57 -8q38 0 55 12.5t17 42.5q0 14 -5 21.5t-19 11t-26 4t-40 0.5q-23 0 -38 8 t-19 16t-4 15q0 21 20 51l53 76h109l-60 -86q30 6 43 6q63 0 102.5 -36.5t39.5 -76.5q0 -90 -62 -133t-166 -43q-65 0 -107 20t-42 52z" />
<glyph unicode="&#xe8;" horiz-adv-x="1064" d="M53 545q0 111 34 211.5t96 177.5t155.5 122.5t204.5 45.5q107 0 197.5 -46t149 -121.5t90.5 -170t32 -193.5q0 -50 -22.5 -73t-78.5 -23h-678q0 -144 87 -238t235 -94q67 0 123 15t91.5 37t63.5 44t50.5 37t40.5 15q26 0 45.5 -21.5t19.5 -58.5q0 -44 -63.5 -96 t-167.5 -89.5t-205 -37.5q-126 0 -224 46t-157 125t-89 177t-30 209zM233 610h598q0 61 -17.5 119t-51.5 107.5t-91 79.5t-128 30q-65 2 -117.5 -16.5t-86.5 -50.5t-58 -77t-35 -92.5t-13 -99.5zM305 1434q0 28 21 57t57 29q23 0 70 -19l235 -96q72 -29 72 -76 q0 -28 -21 -57t-57 -29q-22 0 -70 19l-235 96q-72 29 -72 76z" />
<glyph unicode="&#xe9;" horiz-adv-x="1064" d="M53 545q0 111 34 211.5t96 177.5t155.5 122.5t204.5 45.5q107 0 197.5 -46t149 -121.5t90.5 -170t32 -193.5q0 -50 -22.5 -73t-78.5 -23h-678q0 -144 87 -238t235 -94q67 0 123 15t91.5 37t63.5 44t50.5 37t40.5 15q26 0 45.5 -21.5t19.5 -58.5q0 -44 -63.5 -96 t-167.5 -89.5t-205 -37.5q-126 0 -224 46t-157 125t-89 177t-30 209zM233 610h598q0 61 -17.5 119t-51.5 107.5t-91 79.5t-128 30q-65 2 -117.5 -16.5t-86.5 -50.5t-58 -77t-35 -92.5t-13 -99.5zM305 1329q0 47 72 76l235 96q47 19 70 19q36 0 57 -29t21 -57q0 -47 -72 -76 l-235 -96q-47 -19 -70 -19q-36 0 -57 29t-21 57z" />
<glyph unicode="&#xea;" horiz-adv-x="1064" d="M53 545q0 111 34 211.5t96 177.5t155.5 122.5t204.5 45.5q107 0 197.5 -46t149 -121.5t90.5 -170t32 -193.5q0 -50 -22.5 -73t-78.5 -23h-678q0 -144 87 -238t235 -94q67 0 123 15t91.5 37t63.5 44t50.5 37t40.5 15q26 0 45.5 -21.5t19.5 -58.5q0 -44 -63.5 -96 t-167.5 -89.5t-205 -37.5q-126 0 -224 46t-157 125t-89 177t-30 209zM221 1321q0 52 47 72l264 112l265 -112q47 -20 47 -72q0 -33 -20.5 -55.5t-53.5 -22.5q-22 0 -45 10l-193 76l-192 -76q-23 -10 -45 -10q-33 0 -53.5 22.5t-20.5 55.5zM233 610h598q0 61 -17.5 119 t-51.5 107.5t-91 79.5t-128 30q-65 2 -117.5 -16.5t-86.5 -50.5t-58 -77t-35 -92.5t-13 -99.5z" />
<glyph unicode="&#xeb;" horiz-adv-x="1064" d="M53 545q0 111 34 211.5t96 177.5t155.5 122.5t204.5 45.5q107 0 197.5 -46t149 -121.5t90.5 -170t32 -193.5q0 -50 -22.5 -73t-78.5 -23h-678q0 -144 87 -238t235 -94q67 0 123 15t91.5 37t63.5 44t50.5 37t40.5 15q26 0 45.5 -21.5t19.5 -58.5q0 -44 -63.5 -96 t-167.5 -89.5t-205 -37.5q-126 0 -224 46t-157 125t-89 177t-30 209zM231 1348q0 46 32.5 78t78.5 32t78.5 -32t32.5 -78t-32.5 -78.5t-78.5 -32.5t-78.5 32.5t-32.5 78.5zM233 610h598q0 61 -17.5 119t-51.5 107.5t-91 79.5t-128 30q-65 2 -117.5 -16.5t-86.5 -50.5 t-58 -77t-35 -92.5t-13 -99.5zM612 1348q0 46 32.5 78t78.5 32t78.5 -32t32.5 -78t-32.5 -78.5t-78.5 -32.5t-78.5 32.5t-32.5 78.5z" />
<glyph unicode="&#xec;" d="M-18 1434q0 29 20.5 57.5t56.5 28.5q23 0 70 -19l236 -96q71 -29 71 -76q0 -28 -21 -57t-57 -29q-21 0 -69 19l-236 96q-71 29 -71 76zM119 84v922q0 44 24.5 70t65.5 26t65.5 -26t24.5 -70v-922q0 -44 -24.5 -70t-65.5 -26t-65.5 26t-24.5 70z" />
<glyph unicode="&#xed;" d="M-18 1329q0 47 71 76l236 96q47 19 69 19q36 0 57 -29t21 -57q0 -47 -71 -76l-236 -96q-48 -19 -70 -19q-36 0 -56.5 28.5t-20.5 57.5zM119 84v922q0 44 24.5 70t65.5 26t65.5 -26t24.5 -70v-922q0 -44 -24.5 -70t-65.5 -26t-65.5 26t-24.5 70z" />
<glyph unicode="&#xee;" d="M-102 1321q0 52 47 72l264 112l264 -112q47 -20 47 -72q0 -33 -20.5 -55.5t-53.5 -22.5q-22 0 -45 10l-192 76l-193 -76q-23 -10 -45 -10q-33 0 -53 22.5t-20 55.5zM119 84v922q0 44 24.5 70t65.5 26t65.5 -26t24.5 -70v-922q0 -44 -24.5 -70t-65.5 -26t-65.5 26 t-24.5 70z" />
<glyph unicode="&#xef;" d="M-92 1348q0 46 32 78t78 32t78.5 -32t32.5 -78t-32.5 -78.5t-78.5 -32.5t-78 32.5t-32 78.5zM119 84v922q0 44 24.5 70t65.5 26t65.5 -26t24.5 -70v-922q0 -44 -24.5 -70t-65.5 -26t-65.5 26t-24.5 70zM289 1348q0 46 32 78t78 32t78.5 -32t32.5 -78t-32.5 -78.5 t-78.5 -32.5t-78 32.5t-32 78.5z" />
<glyph unicode="&#xf0;" horiz-adv-x="1101" d="M72 537q0 84 19.5 164.5t59 151t94.5 123.5t131 83.5t163 30.5q73 0 144.5 -33.5t113.5 -89.5l4 4q-65 177 -248 329l-178 -86q-37 -18 -60 -18q-20 0 -34.5 15.5t-14.5 39.5q0 31 35 47l158 76q-34 27 -87 49.5t-79.5 41.5t-26.5 53q0 28 21 45.5t55 17.5q48 0 128 -37 t148 -88l189 94q40 19 59 19q20 0 34.5 -12t14.5 -37q0 -24 -10 -36.5t-33 -23.5l-159 -78q172 -154 244.5 -343.5t72.5 -426.5q0 -185 -51.5 -323t-164 -219.5t-275.5 -81.5q-87 0 -163 30.5t-131 83.5t-94.5 123t-59 149.5t-19.5 162.5zM252 537q0 -57 11 -112 t34.5 -106.5t57.5 -90t84.5 -62t111.5 -23.5t111.5 23.5t84.5 62t57.5 90t34.5 106.5t11 112t-11 111.5t-34.5 106t-57.5 90t-84.5 62t-111.5 23.5t-111.5 -23.5t-84.5 -62t-57.5 -90t-34.5 -106t-11 -111.5z" />
<glyph unicode="&#xf1;" horiz-adv-x="1101" d="M119 84v922q0 44 24.5 70t65.5 26t65.5 -26t24.5 -70v-43l4 -5q113 144 301 144q53 0 104 -13t101.5 -44.5t88.5 -77.5t61.5 -118t23.5 -161v-604q0 -44 -24.5 -70t-65.5 -26t-65.5 26t-24.5 70v594q0 68 -22.5 121.5t-59.5 84.5t-80 46.5t-90 15.5t-90 -15.5t-80 -46.5 t-59.5 -84.5t-22.5 -121.5v-594q0 -44 -24.5 -70t-65.5 -26t-65.5 26t-24.5 70zM246 1341q0 50 53.5 89.5t136.5 39.5q49 0 118.5 -20t107.5 -20q30 0 67 20t59 20q24 0 46 -24t22 -55q0 -50 -53.5 -89.5t-136.5 -39.5q-49 0 -118.5 20.5t-107.5 20.5q-30 0 -67.5 -20.5 t-59.5 -20.5q-24 0 -45.5 24t-21.5 55z" />
<glyph unicode="&#xf2;" horiz-adv-x="1101" d="M72 545q0 148 54.5 272.5t165.5 204.5t259 80t259 -80t165.5 -204.5t54.5 -272.5t-54.5 -272.5t-165.5 -204.5t-259 -80t-259 80t-165.5 204.5t-54.5 272.5zM252 545q0 -58 9.5 -113t32.5 -108t56 -92.5t85 -64t116 -24.5t116 24.5t85 64t56 92.5t32.5 108t9.5 113 t-9.5 112.5t-32.5 107.5t-56 93t-85 64t-116 24t-116 -24t-85 -64t-56 -93t-32.5 -107.5t-9.5 -112.5zM324 1434q0 29 20.5 57.5t56.5 28.5q23 0 70 -19l236 -96q71 -29 71 -76q0 -28 -21 -57t-57 -29q-22 0 -69 19l-236 96q-71 29 -71 76z" />
<glyph unicode="&#xf3;" horiz-adv-x="1101" d="M72 545q0 148 54.5 272.5t165.5 204.5t259 80t259 -80t165.5 -204.5t54.5 -272.5t-54.5 -272.5t-165.5 -204.5t-259 -80t-259 80t-165.5 204.5t-54.5 272.5zM252 545q0 -58 9.5 -113t32.5 -108t56 -92.5t85 -64t116 -24.5t116 24.5t85 64t56 92.5t32.5 108t9.5 113 t-9.5 112.5t-32.5 107.5t-56 93t-85 64t-116 24t-116 -24t-85 -64t-56 -93t-32.5 -107.5t-9.5 -112.5zM324 1329q0 47 71 76l236 96q48 19 69 19q36 0 57 -29t21 -57q0 -47 -71 -76l-236 -96q-47 -19 -70 -19q-36 0 -56.5 28.5t-20.5 57.5z" />
<glyph unicode="&#xf4;" horiz-adv-x="1101" d="M72 545q0 148 54.5 272.5t165.5 204.5t259 80t259 -80t165.5 -204.5t54.5 -272.5t-54.5 -272.5t-165.5 -204.5t-259 -80t-259 80t-165.5 204.5t-54.5 272.5zM240 1321q0 52 47 72l264 112l264 -112q47 -20 47 -72q0 -33 -20.5 -55.5t-53.5 -22.5q-22 0 -45 10l-192 76 l-193 -76q-23 -10 -45 -10q-33 0 -53 22.5t-20 55.5zM252 545q0 -58 9.5 -113t32.5 -108t56 -92.5t85 -64t116 -24.5t116 24.5t85 64t56 92.5t32.5 108t9.5 113t-9.5 112.5t-32.5 107.5t-56 93t-85 64t-116 24t-116 -24t-85 -64t-56 -93t-32.5 -107.5t-9.5 -112.5z" />
<glyph unicode="&#xf5;" horiz-adv-x="1101" d="M72 545q0 148 54.5 272.5t165.5 204.5t259 80t259 -80t165.5 -204.5t54.5 -272.5t-54.5 -272.5t-165.5 -204.5t-259 -80t-259 80t-165.5 204.5t-54.5 272.5zM246 1341q0 50 53.5 89.5t136.5 39.5q49 0 118.5 -20t107.5 -20q30 0 67 20t59 20q24 0 46 -24t22 -55 q0 -50 -53.5 -89.5t-136.5 -39.5q-49 0 -118.5 20.5t-107.5 20.5q-30 0 -67.5 -20.5t-59.5 -20.5q-24 0 -45.5 24t-21.5 55zM252 545q0 -58 9.5 -113t32.5 -108t56 -92.5t85 -64t116 -24.5t116 24.5t85 64t56 92.5t32.5 108t9.5 113t-9.5 112.5t-32.5 107.5t-56 93t-85 64 t-116 24t-116 -24t-85 -64t-56 -93t-32.5 -107.5t-9.5 -112.5z" />
<glyph unicode="&#xf6;" horiz-adv-x="1101" d="M72 545q0 148 54.5 272.5t165.5 204.5t259 80t259 -80t165.5 -204.5t54.5 -272.5t-54.5 -272.5t-165.5 -204.5t-259 -80t-259 80t-165.5 204.5t-54.5 272.5zM250 1348q0 46 32 78t78 32t78.5 -32t32.5 -78t-32.5 -78.5t-78.5 -32.5t-78 32.5t-32 78.5zM252 545 q0 -58 9.5 -113t32.5 -108t56 -92.5t85 -64t116 -24.5t116 24.5t85 64t56 92.5t32.5 108t9.5 113t-9.5 112.5t-32.5 107.5t-56 93t-85 64t-116 24t-116 -24t-85 -64t-56 -93t-32.5 -107.5t-9.5 -112.5zM631 1348q0 46 32 78t78 32t78.5 -32t32.5 -78t-32.5 -78.5 t-78.5 -32.5t-78 32.5t-32 78.5z" />
<glyph unicode="&#xf7;" horiz-adv-x="1228" d="M96 518q0 41 24 62.5t64 21.5h860q40 0 64.5 -21.5t24.5 -62.5t-24.5 -62.5t-64.5 -21.5h-860q-40 0 -64 21.5t-24 62.5zM467 94q0 62 43 105t104 43q62 0 105 -43t43 -105q0 -61 -43 -104t-105 -43t-104.5 42.5t-42.5 104.5zM467 942q0 62 43 105t104 43q62 0 105 -43 t43 -105q0 -61 -43 -104t-105 -43t-104.5 42.5t-42.5 104.5z" />
<glyph unicode="&#xf8;" horiz-adv-x="1101" d="M47 8q0 30 37 72l92 110q-104 140 -104 355q0 148 54.5 272.5t165.5 204.5t259 80q170 0 293 -105l84 103q31 39 63 39q26 0 45 -16.5t19 -41.5q0 -13 -4 -24t-8.5 -17.5t-16.5 -21.5l-98 -117q102 -153 102 -356q0 -148 -54.5 -272.5t-165.5 -204.5t-259 -80 q-173 0 -291 106l-86 -104q-28 -39 -65 -39q-26 0 -44 17.5t-18 39.5zM252 545q0 -120 41 -213l446 538q-73 76 -188 76q-64 0 -116 -24t-85 -64t-56 -93t-32.5 -107.5t-9.5 -112.5zM362 219q73 -76 189 -76q64 0 116 24.5t85 64t56 92.5t32.5 108t9.5 113q0 123 -41 213z " />
<glyph unicode="&#xf9;" horiz-adv-x="1101" d="M119 422v584q0 44 24.5 70t65.5 26t65.5 -26t24.5 -70v-578q0 -285 252 -285t252 285v578q0 44 24.5 70t65.5 26t65.5 -26t24.5 -70v-584q0 -115 -36 -201.5t-98.5 -136t-137 -73t-160.5 -23.5t-160.5 23.5t-137 73t-98.5 136t-36 201.5zM324 1434q0 29 20.5 57.5 t56.5 28.5q23 0 70 -19l236 -96q71 -29 71 -76q0 -28 -21 -57t-57 -29q-22 0 -69 19l-236 96q-71 29 -71 76z" />
<glyph unicode="&#xfa;" horiz-adv-x="1101" d="M119 422v584q0 44 24.5 70t65.5 26t65.5 -26t24.5 -70v-578q0 -285 252 -285t252 285v578q0 44 24.5 70t65.5 26t65.5 -26t24.5 -70v-584q0 -115 -36 -201.5t-98.5 -136t-137 -73t-160.5 -23.5t-160.5 23.5t-137 73t-98.5 136t-36 201.5zM324 1329q0 47 71 76l236 96 q48 19 69 19q36 0 57 -29t21 -57q0 -47 -71 -76l-236 -96q-47 -19 -70 -19q-36 0 -56.5 28.5t-20.5 57.5z" />
<glyph unicode="&#xfb;" horiz-adv-x="1101" d="M119 422v584q0 44 24.5 70t65.5 26t65.5 -26t24.5 -70v-578q0 -285 252 -285t252 285v578q0 44 24.5 70t65.5 26t65.5 -26t24.5 -70v-584q0 -115 -36 -201.5t-98.5 -136t-137 -73t-160.5 -23.5t-160.5 23.5t-137 73t-98.5 136t-36 201.5zM240 1321q0 52 47 72l264 112 l264 -112q47 -20 47 -72q0 -33 -20.5 -55.5t-53.5 -22.5q-22 0 -45 10l-192 76l-193 -76q-23 -10 -45 -10q-33 0 -53 22.5t-20 55.5z" />
<glyph unicode="&#xfc;" horiz-adv-x="1101" d="M119 422v584q0 44 24.5 70t65.5 26t65.5 -26t24.5 -70v-578q0 -285 252 -285t252 285v578q0 44 24.5 70t65.5 26t65.5 -26t24.5 -70v-584q0 -115 -36 -201.5t-98.5 -136t-137 -73t-160.5 -23.5t-160.5 23.5t-137 73t-98.5 136t-36 201.5zM250 1348q0 46 32 78t78 32 t78.5 -32t32.5 -78t-32.5 -78.5t-78.5 -32.5t-78 32.5t-32 78.5zM631 1348q0 46 32 78t78 32t78.5 -32t32.5 -78t-32.5 -78.5t-78.5 -32.5t-78 32.5t-32 78.5z" />
<glyph unicode="&#xfd;" horiz-adv-x="909" d="M35 1026q0 33 25 54.5t57 21.5q33 0 57 -19t33 -49l250 -747h4l246 747q21 68 86 68q32 0 56.5 -21.5t24.5 -54.5q0 -27 -24 -100l-455 -1301q-24 -67 -88 -67q-32 0 -57 21t-25 54q0 29 27 101l115 305l-308 887q-24 73 -24 100zM227 1329q0 47 72 76l236 96 q47 19 69 19q36 0 57 -29t21 -57q0 -47 -72 -76l-235 -96q-47 -19 -70 -19q-36 0 -57 29t-21 57z" />
<glyph unicode="&#xfe;" horiz-adv-x="1138" d="M127 -346v1831q0 44 24.5 70t65.5 26t65.5 -26t24.5 -70v-533h4q78 150 291 150q107 0 196.5 -46.5t147.5 -124t89.5 -177.5t31.5 -209t-31.5 -209t-89.5 -177.5t-147.5 -124t-196.5 -46.5q-98 0 -174 43.5t-117 103.5h-4v-481q0 -44 -24.5 -70t-65.5 -26t-65.5 26 t-24.5 70zM289 545q0 -58 9.5 -113t32.5 -108t56 -92.5t85 -64t116 -24.5t116 24.5t85 64t56 92.5t32.5 108t9.5 113t-9.5 112.5t-32.5 107.5t-56 93t-85 64t-116 24t-116 -24t-85 -64t-56 -93t-32.5 -107.5t-9.5 -112.5z" />
<glyph unicode="&#xff;" horiz-adv-x="909" d="M35 1026q0 33 25 54.5t57 21.5q33 0 57 -19t33 -49l250 -747h4l246 747q21 68 86 68q32 0 56.5 -21.5t24.5 -54.5q0 -27 -24 -100l-455 -1301q-24 -67 -88 -67q-32 0 -57 21t-25 54q0 29 27 101l115 305l-308 887q-24 73 -24 100zM154 1348q0 46 32 78t78 32t78.5 -32 t32.5 -78t-32.5 -78.5t-78.5 -32.5t-78 32.5t-32 78.5zM535 1348q0 46 32 78t78 32t78.5 -32t32.5 -78t-32.5 -78.5t-78.5 -32.5t-78 32.5t-32 78.5z" />
<glyph unicode="&#x152;" horiz-adv-x="1896" d="M63 729q0 115 26 222.5t79.5 202t128.5 165t179.5 111t225.5 40.5q251 0 433 -204v94q0 44 23.5 71t72.5 27h493q40 0 64 -21.5t24 -62.5t-24 -62.5t-64 -21.5h-409v-477h395q40 0 64 -21.5t24 -62.5t-24 -62.5t-64 -21.5h-395v-477h430q40 0 64 -21.5t24 -62.5 t-24 -62.5t-64 -21.5h-514q-49 0 -72.5 27t-23.5 71v115h-5q-70 -100 -185 -162.5t-243 -62.5q-121 0 -225.5 40.5t-179.5 111t-128.5 165t-79.5 202t-26 222.5zM256 729q0 -87 14.5 -168.5t48.5 -158t84 -133.5t127 -91.5t172 -34.5t172 34.5t127.5 91.5t84.5 133.5 t48.5 158t14.5 168.5t-14.5 168.5t-48.5 158t-84.5 133.5t-127.5 91.5t-172 34.5t-172 -34.5t-127 -91.5t-84 -133.5t-48.5 -158t-14.5 -168.5z" />
<glyph unicode="&#x153;" horiz-adv-x="1857" d="M72 545q0 109 32 209t91 178t150 124t200 46q122 0 224.5 -57t170.5 -156q57 98 158 155.5t227 57.5q111 0 203.5 -46t151.5 -121.5t91.5 -169.5t32.5 -194q0 -50 -22 -73t-78 -23h-678q0 -145 89.5 -238t248.5 -90q77 1 139 23.5t94 48.5t64 48.5t55 23.5q26 0 46 -22 t20 -58q2 -44 -60 -96t-164 -89.5t-202 -37.5q-147 0 -252.5 57t-163.5 156q-69 -97 -171.5 -155t-223.5 -58q-109 0 -200 46t-150 124t-91 178t-32 209zM252 545q0 -73 16 -141t49.5 -128t93.5 -96.5t138 -36.5t138 36.5t93.5 96.5t49.5 128t16 141q0 58 -9.5 112.5 t-32 107.5t-56 93t-85 64t-114.5 24t-114.5 -24t-85 -64t-56 -93t-32 -107.5t-9.5 -112.5zM1026 610h598q0 48 -11 95t-34.5 90.5t-57.5 77t-84.5 53.5t-111.5 20t-111.5 -20t-84.5 -53.5t-57.5 -77t-34.5 -90.5t-11 -95z" />
<glyph unicode="&#x178;" horiz-adv-x="1024" d="M2 1397q0 33 23.5 53t58.5 20q56 0 90 -57l338 -551l338 551q34 57 90 57q35 0 58.5 -20t23.5 -53q0 -28 -29 -76l-391 -637v-600q0 -44 -24.5 -70t-65.5 -26t-65.5 26t-24.5 70v600l-391 637q-29 48 -29 76zM211 1675q0 46 32.5 78.5t78.5 32.5t78 -32.5t32 -78.5 t-32 -78t-78 -32t-78.5 32t-32.5 78zM592 1675q0 46 32 78.5t78 32.5t78.5 -32.5t32.5 -78.5t-32.5 -78t-78.5 -32t-78 32t-32 78z" />
<glyph unicode="&#x2c6;" d="M-102 1321q0 52 47 72l264 112l264 -112q47 -20 47 -72q0 -33 -20.5 -55.5t-53.5 -22.5q-22 0 -45 10l-192 76l-193 -76q-23 -10 -45 -10q-33 0 -53 22.5t-20 55.5z" />
<glyph unicode="&#x2dc;" d="M-96 1341q0 50 53.5 89.5t136.5 39.5q49 0 118 -20t107 -20q30 0 67.5 20t59.5 20q24 0 46 -24t22 -55q0 -50 -53.5 -89.5t-136.5 -39.5q-49 0 -118.5 20.5t-107.5 20.5q-30 0 -67.5 -20.5t-59.5 -20.5q-24 0 -45.5 24t-21.5 55z" />
<glyph unicode="&#x2000;" horiz-adv-x="944" />
<glyph unicode="&#x2001;" horiz-adv-x="1888" />
<glyph unicode="&#x2002;" horiz-adv-x="944" />
<glyph unicode="&#x2003;" horiz-adv-x="1888" />
<glyph unicode="&#x2004;" horiz-adv-x="629" />
<glyph unicode="&#x2005;" horiz-adv-x="472" />
<glyph unicode="&#x2006;" horiz-adv-x="314" />
<glyph unicode="&#x2007;" horiz-adv-x="314" />
<glyph unicode="&#x2008;" horiz-adv-x="236" />
<glyph unicode="&#x2009;" horiz-adv-x="377" />
<glyph unicode="&#x200a;" horiz-adv-x="104" />
<glyph unicode="&#x2010;" horiz-adv-x="720" d="M72 549q0 32 23 55t55 23h421q32 0 55 -23t23 -55t-23 -55t-55 -23h-421q-32 0 -55 23t-23 55z" />
<glyph unicode="&#x2011;" horiz-adv-x="720" d="M72 549q0 32 23 55t55 23h421q32 0 55 -23t23 -55t-23 -55t-55 -23h-421q-32 0 -55 23t-23 55z" />
<glyph unicode="&#x2012;" horiz-adv-x="720" d="M72 549q0 32 23 55t55 23h421q32 0 55 -23t23 -55t-23 -55t-55 -23h-421q-32 0 -55 23t-23 55z" />
<glyph unicode="&#x2013;" horiz-adv-x="1024" d="M0 549q0 32 23 55t55 23h868q32 0 55 -23t23 -55t-23 -55t-55 -23h-868q-32 0 -55 23t-23 55z" />
<glyph unicode="&#x2014;" horiz-adv-x="2048" d="M-78 549q0 32 23 55t55 23h2048q32 0 55 -23t23 -55t-23 -55t-55 -23h-2048q-32 0 -55 23t-23 55z" />
<glyph unicode="&#x2018;" d="M51 1094q0 28 23 75l114 226q18 36 39.5 55.5t57.5 19.5q33 0 57.5 -22t24.5 -55q0 -29 -23 -76l-115 -225q-19 -37 -39.5 -56.5t-56.5 -19.5q-33 0 -57.5 22.5t-24.5 55.5z" />
<glyph unicode="&#x2019;" d="M51 1094q0 28 23 75l114 226q18 36 39.5 55.5t57.5 19.5q33 0 57.5 -22t24.5 -55q0 -29 -23 -76l-115 -225q-19 -37 -39.5 -56.5t-56.5 -19.5q-33 0 -57.5 22.5t-24.5 55.5z" />
<glyph unicode="&#x201a;" d="M51 -180q0 29 23 76l114 225q19 36 40 56t57 20q33 0 57.5 -22.5t24.5 -55.5q0 -29 -23 -76l-115 -225q-19 -37 -39.5 -56.5t-56.5 -19.5q-33 0 -57.5 22.5t-24.5 55.5z" />
<glyph unicode="&#x201c;" horiz-adv-x="684" d="M39 1094q0 30 22 75l115 226q19 36 39.5 55.5t56.5 19.5q33 0 57.5 -22t24.5 -55q0 -31 -22 -76l-115 -225q-19 -37 -39.5 -56.5t-56.5 -19.5q-33 0 -57.5 22.5t-24.5 55.5zM330 1094q0 30 22 75l115 226q19 36 39.5 55.5t56.5 19.5q33 0 57.5 -22t24.5 -55 q0 -31 -22 -76l-115 -225q-19 -37 -39.5 -56.5t-56.5 -19.5q-33 0 -57.5 22.5t-24.5 55.5z" />
<glyph unicode="&#x201d;" horiz-adv-x="684" d="M39 1094q0 30 22 75l115 226q19 36 39.5 55.5t56.5 19.5q33 0 57.5 -22t24.5 -55q0 -31 -22 -76l-115 -225q-19 -37 -39.5 -56.5t-56.5 -19.5q-33 0 -57.5 22.5t-24.5 55.5zM330 1094q0 30 22 75l115 226q19 36 39.5 55.5t56.5 19.5q33 0 57.5 -22t24.5 -55 q0 -31 -22 -76l-115 -225q-19 -37 -39.5 -56.5t-56.5 -19.5q-33 0 -57.5 22.5t-24.5 55.5z" />
<glyph unicode="&#x201e;" horiz-adv-x="684" d="M39 -180q0 31 22 76l115 225q19 37 39.5 56.5t56.5 19.5q33 0 57.5 -22.5t24.5 -55.5q0 -31 -22 -76l-115 -225q-19 -37 -39.5 -56.5t-56.5 -19.5q-33 0 -57.5 22.5t-24.5 55.5zM330 -180q0 31 22 76l115 225q19 37 39.5 56.5t56.5 19.5q33 0 57.5 -22.5t24.5 -55.5 q0 -31 -22 -76l-115 -225q-19 -37 -39.5 -56.5t-56.5 -19.5q-33 0 -57.5 22.5t-24.5 55.5z" />
<glyph unicode="&#x2022;" horiz-adv-x="1024" d="M147 729q0 151 107 258t258 107t258 -107t107 -258t-107 -257.5t-258 -106.5t-258 106.5t-107 257.5z" />
<glyph unicode="&#x2026;" horiz-adv-x="2048" d="M238 92q0 43 30.5 74t73.5 31t73.5 -31t30.5 -74t-30.5 -73.5t-73.5 -30.5t-73.5 30.5t-30.5 73.5zM920 92q0 43 30.5 74t73.5 31t73.5 -31t30.5 -74t-30.5 -73.5t-73.5 -30.5t-73.5 30.5t-30.5 73.5zM1602 92q0 43 30.5 74t73.5 31t73.5 -31t30.5 -74t-30.5 -73.5 t-73.5 -30.5t-73.5 30.5t-30.5 73.5z" />
<glyph unicode="&#x202f;" horiz-adv-x="377" />
<glyph unicode="&#x2039;" horiz-adv-x="530" d="M88 549l203 364q29 54 69 54q32 0 57 -19t25 -53q0 -25 -22 -64l-170 -282l170 -283q22 -39 22 -63q0 -34 -25 -53t-57 -19q-40 0 -69 53z" />
<glyph unicode="&#x203a;" horiz-adv-x="530" d="M88 203q0 22 23 63l170 283l-170 282q-23 41 -23 64q0 34 25 53t57 19q41 0 70 -54l202 -364l-202 -365q-29 -53 -70 -53q-32 0 -57 19t-25 53z" />
<glyph unicode="&#x205f;" horiz-adv-x="472" />
<glyph unicode="&#x2122;" horiz-adv-x="2027" d="M119 1391q0 67 65 67h557q66 0 66 -67q0 -68 -66 -68h-194v-625q0 -40 -21.5 -64t-62.5 -24t-62.5 24t-21.5 64v625h-195q-65 0 -65 68zM971 688v645q0 137 129 137q105 0 137 -79l205 -535l200 535q32 79 138 79q129 0 129 -137v-645q0 -32 -23 -55t-55 -23t-55 23 t-23 55v590h-4l-221 -592q-15 -41 -35.5 -58.5t-52.5 -17.5t-52.5 17.5t-35.5 58.5l-222 592h-4v-590q0 -32 -22.5 -55t-54.5 -23t-55 23t-23 55z" />
<glyph unicode="&#xe000;" horiz-adv-x="1105" d="M0 0v1106h1106v-1106h-1106z" />
<glyph unicode="&#xfb01;" horiz-adv-x="948" d="M12 1012q0 37 23 57.5t67 20.5h74v256q0 113 68 174t172 61h55q38 0 70 -21.5t32 -56.5q0 -78 -98 -78h-45q-40 0 -57 -18t-17 -53v-264h113q44 0 67 -20.5t23 -57.5t-23 -57.5t-67 -20.5h-113v-850q0 -44 -24.5 -70t-65.5 -26t-65.5 26t-24.5 70v850h-74q-44 0 -67 20.5 t-23 57.5zM629 1360q0 46 32 78t78 32t78.5 -32t32.5 -78t-32.5 -78.5t-78.5 -32.5t-78 32.5t-32 78.5zM649 84v922q0 44 24.5 70t65.5 26t65.5 -26t24.5 -70v-922q0 -44 -24.5 -70t-65.5 -26t-65.5 26t-24.5 70z" />
<glyph unicode="&#xfb02;" horiz-adv-x="948" d="M12 1012q0 37 23 57.5t67 20.5h74v256q0 113 68 174t172 61h55q38 0 70 -21.5t32 -56.5q0 -78 -98 -78h-45q-40 0 -57 -18t-17 -53v-264h113q44 0 67 -20.5t23 -57.5t-23 -57.5t-67 -20.5h-113v-850q0 -44 -24.5 -70t-65.5 -26t-65.5 26t-24.5 70v850h-74q-44 0 -67 20.5 t-23 57.5zM649 84v1401q0 44 24.5 70t65.5 26t65.5 -26t24.5 -70v-1401q0 -44 -24.5 -70t-65.5 -26t-65.5 26t-24.5 70z" />
</font>
</defs>
</svg>
